Welcome Guest ( Log In | Register )

> Releases Upload / Добавление релизов

Добавить релиз тут / Click here to add release
Рекомендованные обменники / Recommended file shares

 
Reply to this topicStart new topic
> Creaphorium - The Mind's Eye (2019), Instrumental/Progressive Metal
post Jul 25 2019, 10:54:05
Post #1

Serial Uploader
Group Icon
Group: V.I.P
Posts: 35,814
Releases: 34022
From: Lithuania
On Forums: 11 years 2 months
Thanks: 393156 time(s)
Lithuania


(IMG:https://metalarea.org/images/audiocovers/2019_Jul/acov_tid324887_thumb.jpg)

*Artist: Creaphorium
*Album: The Mind's Eye
*Year: 2019
*Genre: Instrumental/Progressive Metal
*Country: United States (IMG:https://metalarea.org/forum/style_images/flags/United%20States.png)
*Format: mp3@CBR320kbps
*Size: 95MB

Tracklist:
01. The Mind's Eye
02. Infectious
03. Dreary Nights
04. Downcast
05. Spinnamon
06. Spangolin
07. Astray
08. Harvey Djent
09. Cataclysmic
10. Closure
******************************
Total playing time: 41:17

(IMG:https://metalarea.org/images/youtube.png)

Technical info
(IMG:https://metalarea.org/images/spectrogram/2019_Jul/697d8cf5a752d3ce27b761c2f5fb7a4b.png)
Input File: 02. Infectious.mp3
Channels : 2
Sample Rate : 44100
Precision : 16-bit
Duration : 00:02:40.09 = 7059969 samples = 12006.8 CDDA sectors
File Size : 6.48M
Bit Rate : 324k
Sample Encoding: MPEG audio (layer I, II or III)
Comments :
Title=Infectious
Artist=Creaphorium
Album=The Mind's Eye
Tracknumber=2/10
Year=2019
Genre=17
Discnumber=1/1



Register


Go to the top of the page
  Insert nick Quick quote
+Quote Post

Reply to this topicStart new topic
1 User(s) are reading this topic (1 Guests and 0 Anonymous Users)
0 Members:

 



- Lo-Fi Version Support form
Copyrights and abuse reports form
Time is now: 19th August 2019 - 04:40:54