Welcome Guest ( Log In | Register )

> Releases Upload / Добавление релизов

Добавить релиз тут / Click here to add release
Рекомендованные обменники / Recommended file shares

> Hellscream - Hate Machine (2019), Heavy/Power Metal
post Jul 25 2019, 11:29:26
Post #1

Serial Uploader
Group Icon
Group: V.I.P
Posts: 35,872
Releases: 34079
From: Lithuania
On Forums: 11 years 2 months
Thanks: 394033 time(s)
Lithuania


(IMG:https://metalarea.org/images/audiocovers/2019_Jul/acov_tid324894_thumb.jpg)

*Artist: Hellscream
*Album: Hate Machine
*Year: 2019
*Genre: Heavy/Power Metal
*Country: United States (IMG:https://metalarea.org/forum/style_images/flags/United%20States.png)
*Format: mp3@CBR320kbps
*Size: 112MB

Tracklist:
01. There Will Be Blood
02. Fire Starter
03. Weight of the World
04. Oubliette
05. Zero Recall
06. Slaves of the Sand
07. Hate Machine
08. Another Angel Down
09. Payback!
10. Blood Rite
11. Wake the Demon
12. Generation Kill
******************************
Total playing time: 48:39



Technical info
(IMG:https://metalarea.org/images/spectrogram/2019_Jul/faa948347d495fb34893adb80cd277d6.png)
Input File: 2 - Firestarter.mp3
Channels : 2
Sample Rate : 44100
Precision : 16-bit
Duration : 00:03:46.57 = 9991825 samples = 16992.9 CDDA sectors
File Size : 9.16M
Bit Rate : 323k
Sample Encoding: MPEG audio (layer I, II or III)
Comments :
Title=Firestarter
Artist=Hellscream
Album=Hate Machine
Tracknumber=2
Year=2019
Genre=Rock/Hard Rock/Metal
Discnumber=1



Register


Go to the top of the page
  Insert nick Quick quote
+Quote Post
 
Start new topic
Replies (1 - 4)
post Jul 25 2019, 15:06:56
Post #2

MDM-Thrash Metal
**************
Group: Металариец
Posts: 8,573
Releases: 570
From: Одесса
On Forums: 12 years 2 weeks
Thanks: 16673 time(s)
Ukraine


Cloud 320:
Register


Go to the top of the page
  Insert nick Quick quote
+Quote Post
post Jul 25 2019, 16:08:23
Post #3

Шесть Литров
******
Group: Металариец
Posts: 539
Releases: 0
On Forums: 10 years 1 month
Thanks: 125 time(s)
Ukraine


Спс за классный релиз!!
Go to the top of the page
  Insert nick Quick quote
+Quote Post
post Jul 25 2019, 19:45:33
Post #4

Ёлд ХеллоВяйне
Group Icon
Group: V.I.P
Posts: 27,532
Releases: 132
From: Питер
On Forums: 12 years 9 months
Thanks: 15508 time(s)
Russian Federation


Go to the top of the page
  Insert nick Quick quote
+Quote Post
post Jul 27 2019, 16:24:37
Post #5

Литр
*
Group: Подсевший
Posts: 87
Releases: 2
On Forums: 9 years 1 month
Thanks: 63 time(s)
Russian Federation


FLAC: https://yadi.sk/d/OGaUew4OfgA6Sg
Go to the top of the page
  Insert nick Quick quote
+Quote Post

Reply to this topicStart new topic
1 User(s) are reading this topic (1 Guests and 0 Anonymous Users)
0 Members:

 



- Lo-Fi Version Support form
Copyrights and abuse reports form
Time is now: 26th August 2019 - 03:48:14