Welcome Guest ( Log In | Register )

> Wömit Angel - Under Sadistic Pressure (2019), Black/Thrash Metal
post Jul 25 2019, 13:59:56
Post #1

Serial Uploader
Group Icon
Group: V.I.P
Posts: 38,453
Releases: 36600
From: Lithuania
On Forums: 13 years 11 months
Thanks: 452640 time(s)
Lithuania


(IMG:https://metalarea.org/images/audiocovers/2019_Jul/acov_tid324909_thumb.jpg)

*Artist: Wömit Angel
*Album: Under Sadistic Pressure
*Year: 2019
*Genre: Black/Thrash Metal
*Country: Finland (IMG:https://metalarea.org/forum/style_images/flags/Finland.png)
*Format: mp3@CBR320kbps
*Size: 68MB

Tracklist:
01. Religion Latex Suffocate
02. Slaughterburster
03. Paindomain
04. Doom to the Known World
05. Impaled in the Name of Grotesque Triumph
06. Diabolical Aftermateria
07. Sadocommand
08. Flesh Necrotic Lunacy
09. Ominous Bloodletting Ritual
10. Under Sadistic Pressure
******************************
Total playing time: 29:35

(IMG:https://metalarea.org/images/myspace.png)


Technical info
(IMG:https://metalarea.org/images/spectrogram/2019_Jul/67c6d2b602be166ed1b58f416e5e6b63.png)
Input File: 02. Slaughterburster.mp3
Channels : 2
Sample Rate : 44100
Precision : 16-bit
Duration : 00:02:36.38 = 6896358 samples = 11728.5 CDDA sectors
File Size : 6.40M
Bit Rate : 327k
Sample Encoding: MPEG audio (layer I, II or III)
Comments :
Title=Slaughterburster
Artist=Wömit Angel
Album=Under Sadistic Pressure
Tracknumber=2/10
Year=2019
Genre=9
Discnumber=1/1



Register


Go to the top of the page
  Insert nick Quick quote
+Quote Post
 
Start new topic
Replies (1 - 5)
post Sep 26 2020, 12:34:00
Post #2

Group: Подсевший
Posts: 48
Releases: 2
On Forums: 15 years 7 months
Thanks: 29 time(s)
Russian Federation


https://www.sendspace.com/file/myp133

320


Thanks:
Go to the top of the page
  Insert nick Quick quote
+Quote Post
post Sep 27 2020, 16:22:57
Post #3

Правь статус, ####!111
**************
Group: Металариец
Posts: 5,450
Releases: 574
From: MoscoW
On Forums: 15 years 5 months
Thanks: 8796 time(s)
Russian Federation




Thanks:
(2) Orkkh, wgs73,
Go to the top of the page
  Insert nick Quick quote
+Quote Post
post Jan 18 2022, 22:53:52
Post #4

aggresive exumator!
**********
Group: Металариец
Posts: 1,435
Releases: 0
On Forums: 10 years 7 months
Thanks: 49 time(s)
Unknown


reupload please
Go to the top of the page
  Insert nick Quick quote
+Quote Post
post Jan 18 2022, 23:29:57
Post #5

Правь статус, ####!111
**************
Group: Металариец
Posts: 3,053
Releases: 0
On Forums: 7 years 1 week
Thanks: 4175 time(s)
Russian Federation


Same bitrate
Register


Thanks:
Go to the top of the page
  Insert nick Quick quote
+Quote Post
post Jan 19 2022, 09:55:38
Post #6

Шесть Литров
******
Group: Металариец
Posts: 542
Releases: 21
From: Подольск
On Forums: 12 years 11 months
Thanks: 857 time(s)
Russian Federation


и задорный бонусный трек с альбома, в wav и mp3:
Register


Thanks:
Go to the top of the page
  Insert nick Quick quote
+Quote Post

Reply to this topicStart new topic
2 User(s) are reading this topic (2 Guests and 0 Anonymous Users)
0 Members:

 



- Lo-Fi Version Support form
Copyrights and abuse reports form
Time is now: 18th May 2022 - 14:29:40