Welcome Guest ( Log In | Register )

> Правила / Rules

Тут только для чтения лежат низкобитрейтные (<192kbps) релизы, для которых есть аналоги в высокобитрейтных форумах.

Here goes (and stand in read only mode) low bitrate releases (<192kbps) which were already replaced by high bitrate releases in corresponding forums.

Причина закрытия (Абигор 27-07-2019): Damned By The Pope - Excommunication [ep] (2019)
 
Closed TopicStart new topic
> Damned By The Pope - Excommunication [ep] (2019), Death Metal (D4)
post Jul 25 2019, 16:04:44
Post #1

Каждое ваше "Спасибо" помогает мне понять, что я делаю новости не напрасно.
**************
Group: Металариец
Posts: 2,121
Releases: 1868
From: Одесса
On Forums: 11 years 6 months
Thanks: 16423 time(s)
Ukraine


(IMG:http://metalarea.org/images/audiocovers/2019_Jul/acov_tid324919_thumb.jpg)

*Artist: Damned By The Pope
*Album: Excommunication [ep]
*Year: 2019
*Genre: Death Metal
*Country: United States (IMG:http://metalarea.org/forum/style_images/flags/United%20States.png)
*Format: mp3@CBR128kbps (IMG:http://metalarea.org/images/bit_low.gif)
*Size: 20MB

Tracklist:
1. Spew Forth the Word of God 01:41
2. Excommunication 05:17
3. Christ Commands Conquest 03:23
4. Symbolic Suffering 04:55
5. Irrelevant Man of God 02:10
6. Die for the Crucifix 02:48
******************************
Total playing time: 20:14



Extended info
Line - up:

Spencer Halstead - Guitars
Ryan Ensign - Guitars
Nolan Horine - Drums, Vocals (Insomniac)
Trevor Hall - Bass, Vocals

(IMG:https://www.metal-archives.com/images/3/5/4/0/3540396171_photo.jpg?5635)


Technical info
(IMG:http://metalarea.org/images/spectrogram/2019_Jul/3888d1af5f0e78d3f752b5773e3fd9e7.png)
Input File: 01 Spew Forth The Word Of God.mp3
Channels : 2
Sample Rate : 44100
Precision : 16-bit
Duration : 00:01:41.40 = 4471652 samples = 7604.85 CDDA sectors
File Size : 1.63M
Bit Rate : 128k
Sample Encoding: MPEG audio (layer I, II or III)
Comments :
Title=Spew Forth The Word Of God
Artist=Damned By The Pope
Album=Excommunication (EP)
Tracknumber=1
Year=2019
Genre=22



Register


Thanks:
Go to the top of the page
  Insert nick Quick quote
+Quote Post

Причина закрытия (Абигор 27-07-2019): Damned By The Pope - Excommunication [ep] (2019)
Closed TopicStart new topic
1 User(s) are reading this topic (1 Guests and 0 Anonymous Users)
0 Members:

 



- Lo-Fi Version Support form
Copyrights and abuse reports form
Time is now: 13th December 2019 - 21:46:38