Welcome Guest ( Log In | Register )

> Voidsphere - To Exist | To Breathe (2019), Atmospheric Black Metal
post Jul 26 2019, 13:25:12
Post #1

Serial Uploader
Group Icon
Group: V.I.P
Posts: 36,465
Releases: 34655
From: Lithuania
On Forums: 11 years 5 months
Thanks: 404878 time(s)
Lithuania


(IMG:https://metalarea.org/images/audiocovers/2019_Jul/acov_tid324947_thumb.jpg)

*Artist: Voidsphere
*Album: To Exist | To Breathe
*Year: 2019
*Genre: Atmospheric Black Metal
*Country: United States (IMG:https://metalarea.org/forum/style_images/flags/United%20States.png)
*Format: mp3@CBR320kbps
*Size: 97MB

Tracklist:
01. The Void Exists 22:16
02. The Void Breathes 20:12
******************************
Total playing time: 42:28



Technical info
(IMG:https://metalarea.org/images/spectrogram/2019_Jul/44733e054f6d497cd9c4e8b78e8234dd.png)
Input File: 02. The Void Breathes.mp3
Channels : 2
Sample Rate : 44100
Precision : 16-bit
Duration : 00:20:12.96 = 53491448 samples = 90971.9 CDDA sectors
File Size : 48.8M
Bit Rate : 322k
Sample Encoding: MPEG audio (layer I, II or III)
Comments :
Title=The Void Breathes
Artist=Voidsphere
Album=To Exist | To Breathe
Tracknumber=2
Year=2019



Register


Go to the top of the page
  Insert nick Quick quote
+Quote Post
 
Start new topic
Replies (1 - 2)
post Jul 27 2019, 12:17:58
Post #2

MDM-Thrash Metal
**************
Group: Металариец
Posts: 9,078
Releases: 743
From: Одесса
On Forums: 12 years 3 months
Thanks: 19837 time(s)
Ukraine


Register


Go to the top of the page
  Insert nick Quick quote
+Quote Post
post Aug 1 2019, 11:41:37
Post #3

my church is black
********
Group: Металариец
Posts: 856
Releases: 1
On Forums: 2 years 5 months
Thanks: 491 time(s)
Cape Verde


не все их проекты заходят, но вот этот норм.
Go to the top of the page
  Insert nick Quick quote
+Quote Post

Reply to this topicStart new topic
1 User(s) are reading this topic (1 Guests and 0 Anonymous Users)
0 Members:

 



- Lo-Fi Version Support form
Copyrights and abuse reports form
Time is now: 20th November 2019 - 23:56:21