Welcome Guest ( Log In | Register )

> Vindkaldr - Miscreantic Mysteries And Invocations (2019), Atmospheric Black/Viking Metal, Ambient
post Jul 26 2019, 18:45:51
Post #1

Каждое ваше "Спасибо" помогает мне понять, что я делаю новости не напрасно.
**************
Group: Металариец
Posts: 2,045
Releases: 1793
From: Одесса
On Forums: 11 years 5 months
Thanks: 15584 time(s)
Ukraine


(IMG:http://metalarea.org/images/audiocovers/2019_Jul/acov_tid324958_thumb.jpg)

*Artist: Vindkaldr
*Album: Miscreantic Mysteries And Invocations
*Year: 2019
*Genre: Atmospheric Black/Viking Metal, Ambient
*Country: Australia (IMG:http://metalarea.org/forum/style_images/flags/Australia.png)
*Format: mp3@CBR320kbps
*Size: 140MB

Tracklist:
1. Demonic Nature Eternal 08:42
2. The Barring of Celestial Gates 10:09
3. Exile in Mist and Marshlands 05:11
4. The Night Seizeth, the Night Hath Restoreth 06:05
5. Gleaming Multiplicities in Silver Daggers 09:49
6. Shadow Ascending 08:41
7. Behold the Dancing Aurora of Pestilence 11:00
******************************
Total playing time: 59:37



Technical info
(IMG:http://metalarea.org/images/spectrogram/2019_Jul/2834d4964927022106ca667b78437f58.png)
Input File: 05. Gleaming Multiplicities In Silver Daggers.mp3
Channels : 2
Sample Rate : 44100
Precision : 16-bit
Duration : 00:09:49.38 = 25991834 samples = 44203.8 CDDA sectors
File Size : 23.6M
Bit Rate : 320k
Sample Encoding: MPEG audio (layer I, II or III)
Comments :
Title=Gleaming Multiplicities In Silver Daggers
Artist=Vindkaldr
Album=Miscreantic Mysteries And Invocations
Tracknumber=5
Year=2019
Genre=Atmospheric Black/Viking Metal, Ambient



Register


Go to the top of the page
  Insert nick Quick quote
+Quote Post
 
Start new topic
Replies (1 - 2)
post Jul 27 2019, 06:00:37
Post #2

Пусто
***********
Group: Металариец
Posts: 1,507
Releases: 27
From: Санкт-Петербург
On Forums: 12 years 10 months
Thanks: 1449 time(s)
Russian Federation


блэка нет, только эмбиент. в неформат


Thanks:
Go to the top of the page
  Insert nick Quick quote
+Quote Post
post Jul 27 2019, 11:04:16
Post #3

Два Литра
**
Group: Завсегдатай
Posts: 141
Releases: 10
From: Serbia
On Forums: 12 years 1 month
Thanks: 159 time(s)
Serbia


Interesting, similar to some of Vangelis work
Go to the top of the page
  Insert nick Quick quote
+Quote Post

Reply to this topicStart new topic
2 User(s) are reading this topic (2 Guests and 0 Anonymous Users)
0 Members:

 



- Lo-Fi Version Support form
Copyrights and abuse reports form
Time is now: 17th November 2019 - 09:02:42