Welcome Guest ( Log In | Register )

> Releases Upload / Добавление релизов

Добавить релиз тут / Click here to add release
Рекомендованные обменники / Recommended file shares

> Gnosis Oscuridad Caos - Gnosis Oscuridad Caos (2019), Black/Thrash Metal
post Jul 27 2019, 00:21:01
Post #1

Правь статус, ####!111
**************
Group: Металариец
Posts: 18,203
Releases: 12311
From: Г.Харьков
On Forums: 7 years 3 months
Thanks: 207583 time(s)
Unknown


(IMG:https://metalarea.org/images/audiocovers/2019_Jul/acov_tid324971_thumb.jpg)

*Artist: Gnosis Oscuridad Caos
*Album: Gnosis Oscuridad Caos
*Year: 2019
*Genre: Black/Thrash Metal
*Country: Colombia (IMG:https://metalarea.org/forum/style_images/flags/Colombia.png)
*Format: mp3@CBR320kbps
*Size: 121MB

Tracklist:
1. Schzn 01:26 instrumental
2. Al final de un sueño cósmico 05:01
3. A la sombra de apep 06:32
4. Abstracción onírica 04:45 instrumental
5. 1011 04:21 instrumental
6. Un extraño en este mundo 05:19
7. Intemporal 05:22
8. Perversión divina 04:31
9. Pacto 1 10:59
10. 1101 04:20 instrumental
******************************
Total playing time: 52:36




Extended info


Technical info
(IMG:https://metalarea.org/images/spectrogram/2019_Jul/0b119674ce3bf2a10bfcede00d715c54.png)
Input File: 03 - A la Sombra de Apep.mp3
Channels : 2
Sample Rate : 44100
Precision : 16-bit
Duration : 00:06:32.64 = 17315512 samples = 29448.1 CDDA sectors
File Size : 15.8M
Bit Rate : 323k
Sample Encoding: MPEG audio (layer I, II or III)
Comments :
Title=A la Sombra de Apep
Artist=GoC
Album=Gnosis Oscuridad Caos
Tracknumber=3
Year=2019
Discnumber=1



Register


Go to the top of the page
  Insert nick Quick quote
+Quote Post
 
Start new topic
Replies (1 - 1)
post Jul 27 2019, 11:37:06
Post #2

hearer & reader
**************
Group: Металариец
Posts: 7,965
Releases: 103
From: Moscow
On Forums: 11 years 11 months
Thanks: 7464 time(s)
Russian Federation


Что-то ничего по трэшу не слышу. Жаль.
Go to the top of the page
  Insert nick Quick quote
+Quote Post

Reply to this topicStart new topic
1 User(s) are reading this topic (1 Guests and 0 Anonymous Users)
0 Members:

 



- Lo-Fi Version Support form
Copyrights and abuse reports form
Time is now: 24th August 2019 - 17:35:56