Welcome Guest ( Log In | Register )

> И неформату есть предел.

Рэп/хип-хоп/шансон/поп удаляются. Для них есть свои порталы.

 
Reply to this topicStart new topic
> Soundgarden - Live From The Artists Den [live] (2019), Grunge (D11)
post Jul 27 2019, 16:05:58
Post #1

Маньяк
**********
Group: Металариец
Posts: 1,217
Releases: 91
On Forums: 6 years 1 month
Thanks: 2498 time(s)
Unknown


(IMG:http://metalarea.org/images/audiocovers/2019_Jul/acov_tid324992_thumb.jpg)

*Artist: Soundgarden
*Album: Live From The Artists Den [live]
*Year: 2019
*Genre: Grunge
*Country: United States (IMG:http://metalarea.org/forum/style_images/flags/United%20States.png)
*Format: mp3@CBR320kbps
*Size: 352MB

Tracklist:
CD1

01. Incessant Mace 08:12
02. My Wave 05:17
03. Been Away Too Long 03:31
04. Worse Dreams 03:51
05. Jesus Christ Pose 05:16
06. Flower 03:48
07. Taree 04:07
08. Spoonman 03:53
09. By Crooked Steps 04:06
10. Blind Dogs 06:00
11. Rowing 04:52
12. Non-State Actor 04:12
13. Drawing Flies 02:33
14. Hunted Down 02:57
15. Black Saturday 04:08
16. Bones Of Birds 04:27
17. Blow Up The Outside World 05:43

CD2

01. Fell On Black Days 05:47
02. Burden In My Hand 04:52
03. A Thousand Days Before 04:58
04. Blood On The Valley Floor 03:54
05. Rusty Cage 05:00
06. New Damage 06:42
07. 4th Of July 08:45
08. Outshined 05:40
09. Black Hole Sun 05:50
10. Ty Cobb 03:08
11. Slaves & Bulldozers 10:37
12. Feedbacchanal 04:20
******************************
Total playing time: 2:26:26

Extended info
Second ever live performance of Blind Dogs (the first one was in 1995).


Technical info
(IMG:http://metalarea.org/images/spectrogram/2019_Jul/5ac0f36e95aae7c48695661f8eb57edd.png)
Input File: 10 - Blind Dogs.mp3
Channels : 2
Sample Rate : 44100
Precision : 16-bit
Duration : 00:00:00.36 = 15876 samples = 27 CDDA sectors
File Size : 15.0M
Bit Rate : 334M
Sample Encoding: MPEG audio (layer I, II or III)
Comments :
Title=Blind Dogs
Artist=Soundgarden
Album=Live From The Artists Den
Tracknumber=10
Year=2019-19-20
Genre=Alternative



Register


Thanks:
Go to the top of the page
  Insert nick Quick quote
+Quote Post

Reply to this topicStart new topic
2 User(s) are reading this topic (2 Guests and 0 Anonymous Users)
0 Members:

 



- Lo-Fi Version Support form
Copyrights and abuse reports form
Time is now: 19th November 2019 - 06:10:31