Welcome Guest ( Log In | Register )

> Nightrider - Rock Machine (2019), Heavy Metal
post Jul 27 2019, 19:34:57
Post #1

MDM-Thrash Metal
**************
Group: Металариец
Posts: 9,857
Releases: 1050
From: Одесса
On Forums: 13 years 1 month
Thanks: 26111 time(s)
Ukraine


(IMG:http://metalarea.org/images/audiocovers/2019_Jul/acov_tid325008.jpg)

*Artist: Nightrider
*Album: Rock Machine
*Year: 2019
*Genre: Heavy Metal
*Country: United States (IMG:http://metalarea.org/forum/style_images/flags/United%20States.png)
*Format: mp3@CBR320kbps
*Size: 132MB

Tracklist:
01. Vanishing Point
02. Hard Driving Metal Machine
03. Knightmare
04. Stranger In A Strange Land
05. Get Up Or Get Out
06. Power Of Passion
07. Rockin’ Down The Night
08. Not About You
09. Hard Livin’
10. Let Me Move Into You
11. Open Road
12. Take The Lead
******************************
Total playing time: 50:53

(IMG:http://metalarea.org/images/youtube.png)



Technical info
(IMG:http://metalarea.org/images/spectrogram/2019_Jul/7fcba70c4030fa6a257edf598f99d600.png)
Input File: 02. Hard Driving Metal Machine.mp3
Channels : 2
Sample Rate : 44100
Precision : 16-bit
Duration : 00:04:35.79 = 12162471 samples = 20684.5 CDDA sectors
File Size : 11.1M
Bit Rate : 323k
Sample Encoding: MPEG audio (layer I, II or III)
Comments :
Title=Hard Driving Metal Machine
Artist=Nightrider
Album=Rock Machine
Tracknumber=2/13
Year=2019
Genre=17
Discnumber=1/1



Register


Go to the top of the page
  Insert nick Quick quote
+Quote Post
 
Start new topic
Replies (1 - 2)
post Jul 28 2019, 08:03:03
Post #2

South Of Heaven /адепт ВУДУ
**************
Group: Металариец
Posts: 13,960
Releases: 9
On Forums: 10 years 5 months
Thanks: 5498 time(s)
Unknown


Дебютник аж в 1990 году, это второй альбом.

По превью беззубый какой-то хэви.
Go to the top of the page
  Insert nick Quick quote
+Quote Post
post Jul 28 2019, 16:45:08
Post #3

Правь статус, ####!111
**************
Group: Металариец
Posts: 3,143
Releases: 10
From: Dnipro
On Forums: 12 years 2 months
Thanks: 1123 time(s)
Ukraine


ЦИТАТА(avkruchinin @ Jul 28 2019, 10:03:03) *
Дебютник аж в 1990 году, это второй альбом.

По превью беззубый какой-то хэви.

Так конечно беззубое стариканье, тридцать лет не пели (IMG:style_emoticons/default/25.gif)
Go to the top of the page
  Insert nick Quick quote
+Quote Post

Reply to this topicStart new topic
1 User(s) are reading this topic (1 Guests and 0 Anonymous Users)
0 Members:

 



- Lo-Fi Version Support form
Copyrights and abuse reports form
Time is now: 26th September 2020 - 18:30:09