Welcome Guest ( Log In | Register )

> Draugr - Hymns Of Temptation (2019), Melodic Death Metal
post Jul 27 2019, 19:57:02
Post #1

Правь статус, ####!111
**************
Group: Металариец
Posts: 21,211
Releases: 14487
From: Г.Харьков
On Forums: 7 years 10 months
Thanks: 258415 time(s)
Unknown


(IMG:https://metalarea.org/images/audiocovers/2019_Jul/acov_tid325010_thumb.jpg)

*Artist: Draugr
*Album: Hymns Of Temptation
*Year: 2019
*Genre: Melodic Death Metal
*Country: United Kingdom (IMG:https://metalarea.org/forum/style_images/flags/United%20Kingdom.png)
*Format: mp3@CBR320kbps
*Size: 94MB

Tracklist:
01. Nothing (Left for Me)
02. Path to the Sky
03. Towards the End
04. Kingdom of the Shades
05. Kuolemanpyörä
06. Hymn of Temptation
07. Perish Song
08. Wither Away
******************************
Total playing time: 37:06




Extended info
James Kelly Drums, Vocals (backing) (2013-present)
See also: Cerberus Unchained
Shea "Janne" Mackay Vocals, Guitars (2013-present)
Dan Tuck Bass (2016-present)
Chay "Ahti" Johnson Guitars (2016-present)
Ellen Meadows Keyboards (2016-present)


Technical info
(IMG:https://metalarea.org/images/spectrogram/2019_Jul/95c53e80e7de3072214ca2cf8441db79.png)
Input File: 03 Towards the End.mp3
Channels : 2
Sample Rate : 44100
Precision : 16-bit
Duration : 00:05:34.83 = 14765959 samples = 25112.2 CDDA sectors
File Size : 13.7M
Bit Rate : 327k
Sample Encoding: MPEG audio (layer I, II or III)
Comments :
Title=Towards The End
Artist=Draugr
Album=Hymns Of Temptation
Tracknumber=03
Year=2019



Register


Go to the top of the page
  Insert nick Quick quote
+Quote Post
 
Start new topic
Replies (1 - 3)
post Jul 27 2019, 22:42:55
Post #2

Литр
*
Group: Подсевший
Posts: 65
Releases: 0
From: Kazakhstan
On Forums: 11 years 1 month
Thanks: 19 time(s)
Kazakhstan


Influenced by bands such as Kalmah, Wintersun, Children of Bodom and In Flames.


Thanks:
(1) ironyserg,
Go to the top of the page
  Insert nick Quick quote
+Quote Post
post Jul 28 2019, 04:03:30
Post #3

Dark Ambient Shoujo
**********
Group: Металариец
Posts: 1,245
Releases: 2
On Forums: 11 years 2 months
Thanks: 684 time(s)
Russian Federation


Пионерский третьесорт.


Thanks:
Go to the top of the page
  Insert nick Quick quote
+Quote Post
post Aug 6 2019, 13:04:19
Post #4

Ъ
**************
Group: Металариец
Posts: 10,008
Releases: 9
On Forums: 11 years 2 months
Thanks: 1986 time(s)
Sweden


Похоже на демку из середины 90х.
Go to the top of the page
  Insert nick Quick quote
+Quote Post

Reply to this topicStart new topic
2 User(s) are reading this topic (2 Guests and 0 Anonymous Users)
0 Members:

 



- Lo-Fi Version Support form
Copyrights and abuse reports form
Time is now: 1st April 2020 - 15:47:28