Welcome Guest ( Log In | Register )

> Releases Upload / Добавление релизов

Добавить релиз тут / Click here to add release
Рекомендованные обменники / Recommended file shares

 
Reply to this topicStart new topic
> Alma Siniestra - Septimo Sello (2019), Heavy/Thrash Metal
post Jul 27 2019, 22:13:34
Post #1

Правь статус, ####!111
**************
Group: Металариец
Posts: 18,136
Releases: 12262
From: Г.Харьков
On Forums: 7 years 3 months
Thanks: 206693 time(s)
Unknown


(IMG:https://metalarea.org/images/audiocovers/2019_Jul/acov_tid325027_thumb.jpg)

*Artist: Alma Siniestra
*Album: Septimo Sello
*Year: 2019
*Genre: Heavy/Thrash Metal
*Country: Argentina (IMG:https://metalarea.org/forum/style_images/flags/Argentina.png)
*Format: mp3@CBR320kbps
*Size: 133MB

Tracklist:
1. El ascenso del ángel
2. Séptimo sello
3. Destructiva polución
4. Deseo tu destrucción
5. Entrando al abismo
6. Destierro
7. Esclavo de tu miseria
8. CG torturador
9. El odio de mi destino
10. Entre el cielo y el infierno
11. Maestro de la oscuridad
12. El fin de los tiempos
******************************
Total playing time: 57:12




Extended info
Luciano Villarreal Bass
Nicolas Ortiz Guitars
Damian Gonzalez Guitars, Vocals
Salvador Velazquez Drums


Technical info
(IMG:https://metalarea.org/images/spectrogram/2019_Jul/45427400587bde399ecc73a42f99be49.png)
Input File: 3 - Destructiva Polucion.mp3
Channels : 2
Sample Rate : 44100
Precision : 16-bit
Duration : 00:05:02.78 = 13352378 samples = 22708.1 CDDA sectors
File Size : 12.2M
Bit Rate : 322k
Sample Encoding: MPEG audio (layer I, II or III)
Comments :
Title=Destructiva Polucion
Artist=ALMA SINIESTRA
Album=Septimo Sello
Tracknumber=3
Year=2019
Genre=Metal
Discnumber=1



Register


Go to the top of the page
  Insert nick Quick quote
+Quote Post

Reply to this topicStart new topic
1 User(s) are reading this topic (1 Guests and 0 Anonymous Users)
0 Members:

 



- Lo-Fi Version Support form
Copyrights and abuse reports form
Time is now: 20th August 2019 - 06:28:59