Welcome Guest ( Log In | Register )

> Clouds Collide - They Don't Sleep Anymore (2019), Post-Black Metal/Shoegaze (D4)
post Jul 29 2019, 13:26:02
Post #1

Serial Uploader
Group Icon
Group: V.I.P
Posts: 37,532
Releases: 35706
From: Lithuania
On Forums: 12 years 10 months
Thanks: 431418 time(s)
Lithuania


(IMG:http://metalarea.org/images/audiocovers/2019_Jul/acov_tid325082_thumb.jpg)

*Artist: Clouds Collide
*Album: They Don't Sleep Anymore
*Year: 2019
*Genre: Post-Black Metal/Shoegaze
*Country: United States (IMG:http://metalarea.org/forum/style_images/flags/United%20States.png)
*Format: mp3@CBR320kbps
*Size: 121MB

Tracklist:
01. Entanglement 08:45
02. Cosmic Loneliness 10:54
03. Golden Youth 10:09
04. Parallel Ruminations 11:05
05. Infinite Purgatory 12:25
******************************
Total playing time: 53:18




Technical info
(IMG:http://metalarea.org/images/spectrogram/2019_Jul/180bb16b24679cbb3350c4a677d2eb23.png)
Input File: 02 - Cosmic Loneliness.mp3
Channels : 2
Sample Rate : 44100
Precision : 16-bit
Duration : 00:10:54.59 = 28867375 samples = 49094.2 CDDA sectors
File Size : 26.2M
Bit Rate : 320k
Sample Encoding: MPEG audio (layer I, II or III)
Comments :
Title=Cosmic Loneliness
Artist=Clouds Collide
Album=They Don't Sleep Anymore
Tracknumber=2
Year=2019
Genre=Metal
Discnumber=1



Register


Go to the top of the page
  Insert nick Quick quote
+Quote Post
 
Start new topic
Replies (1 - 2)
post Feb 3 2021, 05:17:27
Post #2

Четыре Литра
****
Group: Металариец
Posts: 306
Releases: 0
From: Hellisipolis
On Forums: 12 years 3 months
Thanks: 34 time(s)
Antarctica


Can someone re-upload this please. It must be my hipster hip taking over my dödsmetaller cyborg parts


Thanks:
(1) MeatWolf,
Go to the top of the page
  Insert nick Quick quote
+Quote Post
post Feb 3 2021, 10:47:48
Post #3

Group Icon
Group: S-moderation team
Posts: 20,347
Releases: 1441
From: Zagreb
On Forums: 10 years 1 month
Thanks: 93343 time(s)
Croatia


Register


Thanks:
(1) Olethros,
Go to the top of the page
  Insert nick Quick quote
+Quote Post

Reply to this topicStart new topic
2 User(s) are reading this topic (2 Guests and 0 Anonymous Users)
0 Members:

 



- Lo-Fi Version Support form
Copyrights and abuse reports form
Time is now: 21st April 2021 - 15:39:10