Welcome Guest ( Log In | Register )

> Releases Upload / Добавление релизов

Добавить релиз тут / Click here to add release
Рекомендованные обменники / Recommended file shares

 
Reply to this topicStart new topic
> Major Mistake - Foul Foundations (2019), Grindcore
post Jul 29 2019, 14:36:15
Post #1

Serial Uploader
Group Icon
Group: V.I.P
Posts: 36,132
Releases: 34331
From: Lithuania
On Forums: 11 years 3 months
Thanks: 398149 time(s)
Lithuania


(IMG:http://metalarea.org/images/audiocovers/2019_Jul/acov_tid325087_thumb.jpg)

*Artist: Major Mistake
*Album: Foul Foundations
*Year: 2019
*Genre: Grindcore
*Country: Finland (IMG:http://metalarea.org/forum/style_images/flags/Finland.png)
*Format: mp3@CBR320kbps
*Size: 71MB

Tracklist:
01. Massive Failure
02. Flirting with the Void
03. Grease Instinct
04. You Disagree (Hence You Die)
05. Joke's on You
06. Exposed
07. Shallow Competition
08. Baby Factory
09. Small Man Big Fist
10. Psychopatic Control
11. Storm of Words
12. Shit in a Blanket
13. Blinded by Faith
14. Blood Constipation
15. World Police
******************************
Total playing time: 30:51



Technical info
(IMG:http://metalarea.org/images/spectrogram/2019_Jul/d051fc48b8307d776d385be52441985d.png)
Input File: 02. Flirting with the Void.mp3
Channels : 2
Sample Rate : 44100
Precision : 16-bit
Duration : 00:03:06.42 = 8221254 samples = 13981.7 CDDA sectors
File Size : 7.65M
Bit Rate : 328k
Sample Encoding: MPEG audio (layer I, II or III)
Comments :
Title=Flirting with the Void
Artist=Major Mistake
Album=Foul Foundations
Tracknumber=2/6
Year=2019
Genre=9
Discnumber=1/1



Register


Go to the top of the page
  Insert nick Quick quote
+Quote Post

Reply to this topicStart new topic
1 User(s) are reading this topic (1 Guests and 0 Anonymous Users)
0 Members:

 



- Lo-Fi Version Support form
Copyrights and abuse reports form
Time is now: 20th September 2019 - 08:27:52