Welcome Guest ( Log In | Register )

> Releases Upload / Добавление релизов

Добавить релиз тут / Click here to add release
Рекомендованные обменники / Recommended file shares

 
Reply to this topicStart new topic
> Blind Sight - March Of The Clowns (2018), Groove Metal/Metalcore With Thrash Metal Influences
post Jul 29 2019, 17:14:08
Post #1

Каждое ваше "Спасибо" помогает мне понять, что я делаю новости не напрасно.
***********
Group: Металариец
Posts: 1,928
Releases: 1683
From: Одесса
On Forums: 11 years 3 months
Thanks: 14450 time(s)
Ukraine


(IMG:http://metalarea.org/images/audiocovers/2019_Jul/acov_tid325088_thumb.jpg)

*Artist: Blind Sight
*Album: March Of The Clowns
*Year: 2018
*Genre: Groove Metal/Metalcore With Thrash Metal Influences
*Country: Netherlands (IMG:http://metalarea.org/forum/style_images/flags/Netherlands.png)
*Format: mp3@CBR320kbps
*Size: 92MB

Tracklist:
1. March of the Clowns 04:21
2. Pain of the Lost 03:11
3. Empathy Astray 03:48
4. The Cross We Bare 04:08
5. Black Valley 04:07
6. The Watchers 03:47
7. One Man Stand 03:37
8. Taste of Blood 03:32
9. Embrace the Rain 04:14
10. Anti Human 03:52
******************************
Total playing time: 38:37

(IMG:http://metalarea.org/images/youtube.png)

Extended info
Line - up:

Auke Visser - Guitars, Vocals (backing) (ex-Sengaia, ex-The Darkest Red)
Geert Kroes - Vocals, Bass (HDK, The Motion)
Tommie Bonajo - Guitars (From Earth, ex-Scenario II (live))
Dave van Loon - Guitars, Vocals (From Earth)
Matthieu Boer - Drums (Detonation, From Earth, The Sin Committee, ex-Silent Edge, ex-Scenario II, ex-Galanor)

(IMG:https://www.metal-archives.com/images/2/8/3/6/28362_photo.jpg?3822)


Technical info
(IMG:http://metalarea.org/images/spectrogram/2019_Jul/c51ea688c1a1c439a2d653c6a5fb141e.png)
Input File: 09. Embrace The Rain.mp3
Channels : 2
Sample Rate : 44100
Precision : 16-bit
Duration : 00:04:14.79 = 11236151 samples = 19109.1 CDDA sectors
File Size : 10.2M
Bit Rate : 320k
Sample Encoding: MPEG audio (layer I, II or III)
Comments :
Title=Embrace The Rain
Artist=Blind Sight
Album=March Of The Clowns
Tracknumber=09
Year=2018
Genre=Groove Metal/Metalcore with Thrash Metal influences



Register


Go to the top of the page
  Insert nick Quick quote
+Quote Post

Reply to this topicStart new topic
1 User(s) are reading this topic (1 Guests and 0 Anonymous Users)
0 Members:

 



- Lo-Fi Version Support form
Copyrights and abuse reports form
Time is now: 15th September 2019 - 21:08:18