Welcome Guest ( Log In | Register )

> И неформату есть предел.

Рэп/хип-хоп/шансон/поп удаляются. Для них есть свои порталы.

> B. B. King - To Know You Is To Love You (1973), Blues
post Jul 31 2019, 11:40:18
Post #1

Правь статус, ####!111
**************
Group: Металариец
Posts: 42,300
Releases: 638
On Forums: 10 years 2 months
Thanks: 33137 time(s)
Russian Federation


(IMG:http://metalarea.org/images/audiocovers/2019_Jul/acov_tid325149_thumb.jpg)

*Artist: B. B. King
*Album: To Know You Is To Love You
*Year: 1973
*Genre: Blues
*Country: United States (IMG:http://metalarea.org/forum/style_images/flags/United%20States.png)
*Format: mp3@CBR320kbps
*Size: 91MB

Tracklist:
1. I Like To Live The Love
2. Respect Yourself
3. Who Are You
4. Love
5. I Can.t Leave
6. To Know You Is To Love You
7. Oh To Me
8. Thank You For Loving The Blues
******************************
Total playing time: 40:03

(IMG:http://metalarea.org/images/youtube.png)

Technical info
(IMG:http://metalarea.org/images/spectrogram/2019_Jul/efde04e5c6f0371a74034f653a23dcc4.png)
Input File: 02. Respect Yourself.mp3
Channels : 2
Sample Rate : 44100
Precision : 16-bit
Duration : 00:05:15.14 = 13897454 samples = 23635.1 CDDA sectors
File Size : 12.7M
Bit Rate : 321k
Sample Encoding: MPEG audio (layer I, II or III)
Comments :
Title=Respect Yourself
Artist=B.B. King
Album=To Know You Is To Love You
Tracknumber=02
Year=1973
Genre=Blues | Chicago Blues | Delta Blues | Electric Blues | Modern Electric Blues | Regional Blues | Rhythm And Blues | Funk | Soul | Classic Blues



Register


Go to the top of the page
  Insert nick Quick quote
+Quote Post
 
Start new topic
Replies (1 - 1)
post Jul 31 2019, 20:49:41
Post #2

Правь статус, ####!111
**************
Group: Металариец
Posts: 42,300
Releases: 638
On Forums: 10 years 2 months
Thanks: 33137 time(s)
Russian Federation


Отличнейший альбом. (IMG:style_emoticons/default/pray.gif)
Go to the top of the page
  Insert nick Quick quote
+Quote Post

Reply to this topicStart new topic
1 User(s) are reading this topic (1 Guests and 0 Anonymous Users)
0 Members:

 



- Lo-Fi Version Support form
Copyrights and abuse reports form
Time is now: 17th August 2019 - 22:24:36