Welcome Guest ( Log In | Register )

> Правила / Rules

Тут только для чтения лежат низкобитрейтные (<192kbps) релизы, для которых есть аналоги в высокобитрейтных форумах.

Here goes (and stand in read only mode) low bitrate releases (<192kbps) which were already replaced by high bitrate releases in corresponding forums.

> Martyrium - Children Scream For Mercy (2019), Old School Thrash Metal (D)
post Jul 31 2019, 15:09:59
Post #1

Правь статус, ####!111
**************
Group: Металариец
Posts: 19,782
Releases: 13414
From: Г.Харьков
On Forums: 7 years 6 months
Thanks: 232039 time(s)
Unknown


(IMG:http://metalarea.org/images/audiocovers/2019_Jul/acov_tid325152_thumb.jpg)

*Artist: Martyrium
*Album: Children Scream For Mercy
*Year: 2019
*Genre: Old School Thrash Metal
*Country: Chile (IMG:http://metalarea.org/forum/style_images/flags/Chile.png)
*Format: mp3@CBR320kbps
*Size: 86MB

Tracklist:
1. Eaten Alive 06:10
2. Twisted Fate 03:19
3. Cynical Rhetoric of Priest 04:49
4. Fucking Greed 01:43
5. Plenty Beed Pride 02:44
6. Resistance Prevails 04:18
7. Children Scream for Mercy 05:04
8. Misprison of Treason 05:06
9. Pathetic Politicians 04:25
******************************
Total playing time: 37:38




Extended info
Rodrigo Vera Bass, Vocals (2003-present)
See also: ex-Manthra
César Marcoleta Guitars (2004-present)
Javier Silva Guitars (lead) (2017-present)
Nelson Jerez Drums (2018-present)
See also: Árido, Decomposed, ex-Cranial Implosion, ex-Silence of the Old Man (live), ex-Manthra, ex-Familia de Respeto, ex-Insano



Technical info
(IMG:http://metalarea.org/images/spectrogram/2019_Jul/2f84659c846ac57c30bf35b97b7aad52.png)
Input File: 07 - Children Scream for Mercy.mp3
Channels : 2
Sample Rate : 44100
Precision : 16-bit
Duration : 00:05:06.19 = 13502979 samples = 22964.2 CDDA sectors
File Size : 12.3M
Bit Rate : 320k
Sample Encoding: MPEG audio (layer I, II or III)
Comments :
Title=Children Scream for Mercy
Artist=Martyrium
Album=Children Scream for Mercy
Tracknumber=7
Year=2019
Genre=Thrash Metal



Register


Go to the top of the page
  Insert nick Quick quote
+Quote Post
 
Start new topic
Replies (1 - 2)
post Jul 31 2019, 21:10:10
Post #2

Правь статус, ####!111
**************
Group: Металариец
Posts: 44,472
Releases: 687
On Forums: 10 years 6 months
Thanks: 35807 time(s)
Russian Federation


Арты кисти наследника Эда Репки - Андрея Бузикова всегда очень мне нравятся и привлекают внимание, узнаются моментально. Этот художник украсил множество обложек метал коллективов, но преимущественно предпочитает работать с трэш бригадами. Здесь также его художества мы видим. Однако обложка хороша сюжетом, но реализация и прорисовка персонажей не очень удачна как по мне , Андрей способен на большее.

Музыка здесь тоже не ахти - какой то трэш, звучащий обрывочно, не качево и сумбурно, вокал тоже не алле.
Go to the top of the page
  Insert nick Quick quote
+Quote Post
post Jul 31 2019, 21:56:10
Post #3

Правь статус, ####!111
**************
Group: Металариец
Posts: 19,782
Releases: 13414
From: Г.Харьков
On Forums: 7 years 6 months
Thanks: 232039 time(s)
Unknown


Хороший рип 320
Register


Thanks:
Go to the top of the page
  Insert nick Quick quote
+Quote Post

Причина закрытия (DarkHorde 01-08-2019): Martyrium - Children Scream For Mercy (2019)
Closed TopicStart new topic
2 User(s) are reading this topic (2 Guests and 0 Anonymous Users)
0 Members:

 



- Lo-Fi Version Support form
Copyrights and abuse reports form
Time is now: 7th December 2019 - 12:36:32