Welcome Guest ( Log In | Register )

> И неформату есть предел.

Рэп/хип-хоп/шансон/поп удаляются. Для них есть свои порталы.

> Alice Coltrane - Journey In Satchidananda (1970), Jazz/Fusion
post Jul 31 2019, 18:21:58
Post #1

Правь статус, ####!111
**************
Group: Металариец
Posts: 42,462
Releases: 644
On Forums: 10 years 2 months
Thanks: 33322 time(s)
Russian Federation


(IMG:http://metalarea.org/images/audiocovers/2019_Jul/acov_tid325164.jpg)

*Artist: Alice Coltrane
*Album: Journey In Satchidananda
*Year: 1970
*Genre: Jazz/Fusion
*Country: United States (IMG:http://metalarea.org/forum/style_images/flags/United%20States.png)
*Format: mp3@CBR320kbps
*Size: 83MB

Tracklist:
01. Journey In Satchidananda 06:37
02. Shiva-Loka 06:33
03. Stopover Bombay 02:47
04. Something About John Coltrane 09:39
05. Isis And Osiris 11:20
******************************
Total playing time: 36:56

(IMG:http://metalarea.org/images/youtube.png)

Technical info
(IMG:http://metalarea.org/images/spectrogram/2019_Jul/6570ef46a80dd263ada447426e4ae67e.png)
Input File: 01 - Journey In Satchidananda.mp3
Channels : 2
Sample Rate : 48000
Precision : 16-bit
Duration : 00:06:37.08 = 19059984 samples ~ 29781.2 CDDA sectors
File Size : 15.9M
Bit Rate : 320k
Sample Encoding: MPEG audio (layer I, II or III)
Comments :
Title=Journey In Satchidananda
Artist=Alice Coltrane
Album=Journey In Satchidananda
Tracknumber=1/5
Year=1970
Genre=Jazz



Register


Go to the top of the page
  Insert nick Quick quote
+Quote Post
 
Start new topic
Replies (1 - 1)
post Jul 31 2019, 20:41:11
Post #2

Правь статус, ####!111
**************
Group: Металариец
Posts: 42,462
Releases: 644
On Forums: 10 years 2 months
Thanks: 33322 time(s)
Russian Federation


Милости прошу (IMG:style_emoticons/default/smile1.gif)
Go to the top of the page
  Insert nick Quick quote
+Quote Post

Reply to this topicStart new topic
1 User(s) are reading this topic (1 Guests and 0 Anonymous Users)
0 Members:

 



- Lo-Fi Version Support form
Copyrights and abuse reports form
Time is now: 24th August 2019 - 03:20:29