Welcome Guest ( Log In | Register )

 
Reply to this topicStart new topic
> Humanity's Last Breath - Abyssal (2019), Deathcore
post Aug 1 2019, 12:00:41
Post #1

Serial Uploader
Group Icon
Group: V.I.P
Posts: 36,463
Releases: 34651
From: Lithuania
On Forums: 11 years 5 months
Thanks: 404837 time(s)
Lithuania


(IMG:http://metalarea.org/images/audiocovers/2019_Aug/acov_tid325189_thumb.png)

*Artist: Humanity's Last Breath
*Album: Abyssal
*Year: 2019
*Genre: Deathcore
*Country: Sweden (IMG:http://metalarea.org/forum/style_images/flags/Sweden.png)
*Format: mp3@CBR320kbps
*Size: 116MB

Tracklist:
01. Bursting Bowel of Tellus
02. Bone Dust
03. Fradga
04. Abyssal Mouth
05. Pulsating Black
06. För Sorg
07. Like Flies
08. Sterile
09. Being
10. Vånda
11. Rampant
12. Dödgud
******************************
Total playing time: 50:28



(IMG:http://metalarea.org/images/youtube.png)

Technical info
(IMG:http://metalarea.org/images/spectrogram/2019_Aug/a62d1635fad13d18ecc7cd6c5d994a25.png)
Input File: 02. Bone Dust.mp3
Channels : 2
Sample Rate : 44100
Precision : 16-bit
Duration : 00:03:27.87 = 9167111 samples = 15590.3 CDDA sectors
File Size : 9.19M
Bit Rate : 354k
Sample Encoding: MPEG audio (layer I, II or III)
Comments :
Title=Bone Dust
Artist=Humanity's Last Breath
Album=Abyssal
Tracknumber=2
Year=2019
Genre=Metal
Discnumber=1



Register


Go to the top of the page
  Insert nick Quick quote
+Quote Post

Reply to this topicStart new topic
1 User(s) are reading this topic (1 Guests and 0 Anonymous Users)
0 Members:

 



- Lo-Fi Version Support form
Copyrights and abuse reports form
Time is now: 19th November 2019 - 09:27:50