Welcome Guest ( Log In | Register )

> In The Black - In The Black (2019), Black Metal
post Aug 1 2019, 12:22:03
Post #1

Serial Uploader
Group Icon
Group: V.I.P
Posts: 36,458
Releases: 34648
From: Lithuania
On Forums: 11 years 5 months
Thanks: 404517 time(s)
Lithuania


(IMG:http://metalarea.org/images/audiocovers/2019_Aug/acov_tid325191_thumb.jpg)

*Artist: In The Black
*Album: In The Black
*Year: 2019
*Genre: Black Metal
*Country: United States (IMG:http://metalarea.org/forum/style_images/flags/United%20States.png)
*Format: mp3@CBR320kbps
*Size: 140MB

Tracklist:
01. In the Black
02. Last Rose of the Sea
03. A Reaper for You
04. March of Mummies
05. Reanimate
06. Wine of Truth
07. Dream Creep
08. Spook Vision
09. Letters from the Grave
10. Beauty Demonic
11. Blood and Pearls
12. Broad Bone Memories
13. Candle Craft
******************************
Total playing time: 1:00:52



Technical info
(IMG:http://metalarea.org/images/spectrogram/2019_Aug/e734ea34061aa5eef9f2a1b8941bc752.png)
Input File: 02. Last Rose of the Sea.mp3
Channels : 2
Sample Rate : 44100
Precision : 16-bit
Duration : 00:05:58.01 = 15788021 samples = 26850.4 CDDA sectors
File Size : 14.6M
Bit Rate : 327k
Sample Encoding: MPEG audio (layer I, II or III)
Comments :
Title=Last Rose of the Sea
Artist=In The Black
Album=In the Black
Tracknumber=2/13
Year=2019



Register


Go to the top of the page
  Insert nick Quick quote
+Quote Post
 
Start new topic
Replies (1 - 1)
post Aug 2 2019, 05:57:04
Post #2

Восемь Литров
********
Group: Металариец
Posts: 851
Releases: 0
From: Новосибирск
On Forums: 10 years 2 months
Thanks: 236 time(s)
Russian Federation


Что за клоун? Даже на метал архивах про него ничего нет (IMG:style_emoticons/default/smile3.gif)


Thanks:
Go to the top of the page
  Insert nick Quick quote
+Quote Post

Reply to this topicStart new topic
2 User(s) are reading this topic (2 Guests and 0 Anonymous Users)
0 Members:

 



- Lo-Fi Version Support form
Copyrights and abuse reports form
Time is now: 15th November 2019 - 14:26:29