Welcome Guest ( Log In | Register )

> 

Здесь релизы с живыми прямыми ссылками на lossless

> Prophecy - Foreseen Scriptures (2019), Brutal Death Metal
post Aug 1 2019, 20:07:38
Post #1

Правь статус, ####!111
**************
Group: Металариец
Posts: 19,046
Releases: 12853
From: Г.Харьков
On Forums: 7 years 5 months
Thanks: 220380 time(s)
Unknown


(IMG:http://metalarea.org/images/audiocovers/2019_Aug/acov_tid325220_thumb.jpg)

*Artist: Prophecy
*Album: Foreseen Scriptures
*Year: 2019
*Genre: Brutal Death Metal
*Country: United States (IMG:http://metalarea.org/forum/style_images/flags/United%20States.png)
*Format: mp3@CBR320kbps
*Size: 124MB

Tracklist:
1. Foreseen Scriptures
2. Infinite Deception
3. Buried In Brimstone
4. Being Consumed
5. Infuriate
6. Redemption
7. Thy Reach Within
8. The Awakening
9. Eye Of The Pit
10. Our Domain
******************************
Total playing time: 59:16



Extended info
Allen Culmo Bass
See also: Astyanax, ex-Mortifix, Deep South Union, ex-Aberration, ex-K.N.U.A., ex-Zenabi
Trevor Scott Drums
See also: ex-Perpetrator
Charlie Porter Guitars
Drew Duffy Vocals
James Parks II Guitars, Vocals (1991-present)


Technical info
(IMG:http://metalarea.org/images/spectrogram/2019_Aug/92047ff062a8cbb63ea0832bc38e0f18.png)
Input File: 03 - Buried In Brimstone.mp3
Channels : 2
Sample Rate : 44100
Precision : 16-bit
Duration : 00:05:55.03 = 15656647 samples = 26627 CDDA sectors
File Size : 14.4M
Bit Rate : 323k
Sample Encoding: MPEG audio (layer I, II or III)
Comments :
Title=Buried In Brimstone
Artist=Prophecy
Album=Foreseen Scriptures
Tracknumber=3/10
Year=2019
Genre=Brutal Death Metal
Discnumber=1/1



Register


Go to the top of the page
  Insert nick Quick quote
+Quote Post
 
Start new topic
Replies (1 - 3)
post Aug 2 2019, 16:41:42
Post #2

Правь статус, ####!111
**************
Group: Металариец
Posts: 19,046
Releases: 12853
From: Г.Харьков
On Forums: 7 years 5 months
Thanks: 220380 time(s)
Unknown


FLAC (Tracks) 399 mb
Register


Thanks:
(2) ahp, Olethros,
Go to the top of the page
  Insert nick Quick quote
+Quote Post
post Aug 23 2019, 10:34:51
Post #3

Маньяк
**********
Group: Металариец
Posts: 1,224
Releases: 1
From: Беларусь
On Forums: 11 years 9 months
Thanks: 484 time(s)
Russian Federation


О_О Христианский слэмминг!
Go to the top of the page
  Insert nick Quick quote
+Quote Post
post Sep 30 2019, 20:44:00
Post #4

Правь статус, ####!111
**************
Group: Металариец
Posts: 3,610
Releases: 11
From: Москва и МО
On Forums: 13 years 3 months
Thanks: 943 time(s)
Russian Federation


Христианский или нет, альбом порадовал. Собственно, как и прошлый (другие, увы не слышал). Очень качевый материал, вдохновленный разными школами. Весьма хуковый.
Go to the top of the page
  Insert nick Quick quote
+Quote Post

Reply to this topicStart new topic
1 User(s) are reading this topic (1 Guests and 0 Anonymous Users)
0 Members:

 



- Lo-Fi Version Support form
Copyrights and abuse reports form
Time is now: 18th October 2019 - 07:39:10