Welcome Guest ( Log In | Register )

> Releases Upload / Добавление релизов

Добавить релиз тут / Click here to add release
Рекомендованные обменники / Recommended file shares

> Thobbe Englund - Hail To The Priest (2019), Heavy Metal/Hard Rock
post Aug 2 2019, 18:36:29
Post #1

Каждое ваше "Спасибо" помогает мне понять, что я делаю новости не напрасно.
***********
Group: Металариец
Posts: 1,931
Releases: 1690
From: Одесса
On Forums: 11 years 3 months
Thanks: 14492 time(s)
Ukraine


(IMG:http://metalarea.org/images/audiocovers/2019_Aug/acov_tid325251_thumb.jpg)

*Artist: Thobbe Englund
*Album: Hail To The Priest
*Year: 2019
*Genre: Heavy Metal/Hard Rock
*Country: Sweden (IMG:http://metalarea.org/forum/style_images/flags/Sweden.png)
*Format: mp3@CBR320kbps
*Size: 131MB

Tracklist:
1. The Sentinel (Judas Priest cover) 04:54
2. The Ripper (Judas Priest cover) 03:06
3. Reckless (Judas Priest cover) 04:25
4. Immortal Sin (Fight cover) 04:42
5. Hellbent for Leather (Judas Priest cover) 02:50
6. Burn in Hell (Judas Priest cover) 06:43
7. Blood Red Skies (Judas Priest cover) 07:55
8. Desert Plains (Judas Priest cover) 04:28
9. Between the Hammer and the Anvil (Judas Priest cover) 05:09
10. Into the Pit (Fight cover) 04:12
11. Before the Dawn (Judas Priest cover) 03:28
12. I'm a Rocker (Judas Priest cover) 03:53
******************************
Total playing time: 55:45

(IMG:http://metalarea.org/images/youtube.png)

Extended info
Line - up:

Thobbe Englund - Guitars, Vocals, Bass, Guitars, Vocals (Bloodbound (live), ex-Star Queen, ex-Winterlong, ex-Sabaton, ex-Endomorph, ex-Pavlovian Dogs, ex-Raubtier)
Roland Westbom - Bass (Cryonic Temple)
Johan Grandin - Drums
Elon Andersson - Keyboards

(IMG:https://www.metal-archives.com/images/9/9/6/1/99617_photo.jpg?4010)


Technical info
(IMG:http://metalarea.org/images/spectrogram/2019_Aug/79055bd255b94de27c5b79fd33898f42.png)
Input File: 02. The Ripper.mp3
Channels : 2
Sample Rate : 44100
Precision : 16-bit
Duration : 00:03:05.56 = 8183240 samples = 13917.1 CDDA sectors
File Size : 7.42M
Bit Rate : 320k
Sample Encoding: MPEG audio (layer I, II or III)
Comments :
Title=The Ripper
Artist=Thobbe Englund
Album=Hail to the Priest
Tracknumber=2
Year=2019
Genre=Heavy Metal/Hard Rock



Register


Go to the top of the page
  Insert nick Quick quote
+Quote Post
 
Start new topic
Replies (1 - 1)
post Aug 13 2019, 14:22:42
Post #2

Маньяк
**********
Group: Металариец
Posts: 1,363
Releases: 5
From: Нью-Васюки
On Forums: 13 years 4 months
Thanks: 390 time(s)
Russian Federation


Интересно Халфорд эту парашу слышал?За такие кавера убивать нужно.
Go to the top of the page
  Insert nick Quick quote
+Quote Post

Reply to this topicStart new topic
1 User(s) are reading this topic (1 Guests and 0 Anonymous Users)
0 Members:

 



- Lo-Fi Version Support form
Copyrights and abuse reports form
Time is now: 20th September 2019 - 08:41:23