Welcome Guest ( Log In | Register )

> И неформату есть предел.

Рэп/хип-хоп/шансон/поп удаляются. Для них есть свои порталы.

 
Reply to this topicStart new topic
> Negacion - Negacion [ep] (2019), Punk/Hardcore/Powerviolence
post Aug 4 2019, 12:03:24
Post #1

Group: Дух
Posts: 8
Releases: 1
On Forums: 7 months 1 week
Thanks: 8 time(s)
Unknown


(IMG:https://metalarea.org/images/audiocovers/2019_Aug/acov_tid325312_thumb.jpg)

*Artist: Negacion
*Album: Negacion [ep]
*Year: 2019
*Genre: Punk/Hardcore/Powerviolence
*Country: Argentina (IMG:https://metalarea.org/forum/style_images/flags/Argentina.png)
*Format: mp3@CBR320kbps
*Size: 34MB

Tracklist:
1. Construyendome 02:34
2. Miedo y Rencor 02:36
3. Oceanos de Sangre 03:07
4. Kaonashi 02:21
5. Incendia 00:47
6. El verdadero terrorismo es la Economía 02:49
******************************
Total playing time: 14:14



Technical info
(IMG:https://metalarea.org/images/spectrogram/2019_Aug/49aa58395d5104ac534a157654d3f7b7.png)
Input File: Negacion - Negacion EP - 05 Incendia.mp3
Channels : 2
Sample Rate : 44100
Precision : 16-bit
Duration : 00:00:47.78 = 2107098 samples = 3583.5 CDDA sectors
File Size : 2.01M
Bit Rate : 337k
Sample Encoding: MPEG audio (layer I, II or III)
Comments :
Title=Incendia
Artist=Negacion
Album=Negacion EP
Tracknumber=5
Year=2019



Register


Thanks:
(1) Olethros,
Go to the top of the page
  Insert nick Quick quote
+Quote Post

Reply to this topicStart new topic
1 User(s) are reading this topic (1 Guests and 0 Anonymous Users)
0 Members:

 



- Lo-Fi Version Support form
Copyrights and abuse reports form
Time is now: 24th August 2019 - 04:16:37