Welcome Guest ( Log In | Register )

> И неформату есть предел.

Рэп/хип-хоп/шансон/поп удаляются. Для них есть свои порталы.

> Dr. Phibes & The House Of Wax Equations - Hypnotwister (1993), Psychedelic Rock/Alternative
post Aug 4 2019, 17:32:27
Post #1

Правь статус, ####!111
**************
Group: Металариец
Posts: 42,462
Releases: 644
On Forums: 10 years 2 months
Thanks: 33322 time(s)
Russian Federation


(IMG:http://metalarea.org/images/audiocovers/2019_Aug/acov_tid325320_thumb.jpg)

*Artist: Dr. Phibes & The House Of Wax Equations
*Album: Hypnotwister
*Year: 1993
*Genre: Psychedelic Rock/Alternative
*Country: United Kingdom (IMG:http://metalarea.org/forum/style_images/flags/United%20Kingdom.png)
*Format: mp3@CBR320kbps
*Size: 140MB

Tracklist:
1. Burning Cross 07:43
2. Deadpan Control Freak 06:58
3. Real World 05:16
4. Anti-Clockwise 06:46
5. Moment Of Truth 09:37
6. Misdiagnosedive 05:15
7. Hazy Lazy Hologram 07:13
8. Jugular Junkie 04:46
9. Bearhug 09:53
******************************
Total playing time: 1:03:27

(IMG:http://metalarea.org/images/youtube.png)

Technical info
(IMG:http://metalarea.org/images/spectrogram/2019_Aug/e851978979e39ae7633db2d1afc35209.png)
Input File: 01 - Burning Cross.mp3
Channels : 2
Sample Rate : 44100
Precision : 16-bit
Duration : 00:07:43.24 = 20428840 samples = 34742.9 CDDA sectors
File Size : 18.6M
Bit Rate : 321k
Sample Encoding: MPEG audio (layer I, II or III)
Comments :
Title=Burning Cross
Artist=Dr Phibes & The House Of Wax Equations
Album=Hypnotwister
Tracknumber=1
Year=1993
Genre=Psychedelic Rock



Register


Thanks:
(1) Olethros,
Go to the top of the page
  Insert nick Quick quote
+Quote Post
 
Start new topic
Replies (1 - 1)
post Aug 5 2019, 08:28:30
Post #2

Правь статус, ####!111
**************
Group: Металариец
Posts: 42,462
Releases: 644
On Forums: 10 years 2 months
Thanks: 33322 time(s)
Russian Federation


Отличная смесь психоделик рока высшей пробы и альтернативы.
Go to the top of the page
  Insert nick Quick quote
+Quote Post

Reply to this topicStart new topic
1 User(s) are reading this topic (1 Guests and 0 Anonymous Users)
0 Members:

 



- Lo-Fi Version Support form
Copyrights and abuse reports form
Time is now: 24th August 2019 - 04:24:40