Welcome Guest ( Log In | Register )

> И неформату есть предел.

Рэп/хип-хоп/шансон/поп удаляются. Для них есть свои порталы.

> The Lysergics - The Lysergics (2014), Acid/Psychedelic Rock
post Aug 4 2019, 17:47:38
Post #1

Правь статус, ####!111
**************
Group: Металариец
Posts: 42,462
Releases: 644
On Forums: 10 years 2 months
Thanks: 33322 time(s)
Russian Federation


(IMG:http://metalarea.org/images/audiocovers/2019_Aug/acov_tid325322_thumb.jpg)

*Artist: The Lysergics
*Album: The Lysergics
*Year: 2014
*Genre: Acid/Psychedelic Rock
*Country: United Kingdom (IMG:http://metalarea.org/forum/style_images/flags/United%20Kingdom.png)
*Format: mp3@CBR320kbps
*Size: 125MB

Tracklist:
1. Invisible Bars 05:24
2. Head In My Hands 02:56
3. Sun and Moon 04:28
4. Unfaithful 03:48
5. Blue Lines Splashing Orange 07:11
6. 10,000 Words In A Cardboard Box 04:42
7. On The Water 10:39
8. Julie's Glance 15:55
******************************
Total playing time: 55:03



Technical info
(IMG:http://metalarea.org/images/spectrogram/2019_Aug/f508e81e46fc2c4ae73e463c994e3d34.png)
Input File: 01 - Invisible Bars.mp3
Channels : 2
Sample Rate : 44100
Precision : 16-bit
Duration : 00:05:24.83 = 14324871 samples = 24362 CDDA sectors
File Size : 13.1M
Bit Rate : 322k
Sample Encoding: MPEG audio (layer I, II or III)
Comments :
Title=Invisible Bars
Artist=The Lysergics
Album=The Lysergics
Tracknumber=1
Year=2014



Register


Thanks:
Go to the top of the page
  Insert nick Quick quote
+Quote Post
 
Start new topic
Replies (1 - 1)
post Aug 5 2019, 08:29:21
Post #2

Правь статус, ####!111
**************
Group: Металариец
Posts: 42,462
Releases: 644
On Forums: 10 years 2 months
Thanks: 33322 time(s)
Russian Federation


Хорошечно. А на бэндкампе все на халяву, даже флак.
Go to the top of the page
  Insert nick Quick quote
+Quote Post

Reply to this topicStart new topic
1 User(s) are reading this topic (1 Guests and 0 Anonymous Users)
0 Members:

 



- Lo-Fi Version Support form
Copyrights and abuse reports form
Time is now: 24th August 2019 - 04:35:21