Welcome Guest ( Log In | Register )

 
Reply to this topicStart new topic
> Dodenbezweerder - Zwarte Sluiers [ep] (2019), Black Metal
post Aug 4 2019, 18:13:30
Post #1

𝕻𝕬𝕹𝕬𝕮𝕰𝕬
*******
Group: Металариец
Posts: 713
Releases: 403
On Forums: 7 years 5 months
Thanks: 6203 time(s)
Unknown


(IMG:http://metalarea.org/images/audiocovers/2019_Aug/acov_tid325326_thumb.jpg)

*Artist: Dodenbezweerder
*Album: Zwarte Sluiers [ep]
*Year: 2019
*Genre: Black Metal
*Country: Netherlands (IMG:http://metalarea.org/forum/style_images/flags/Netherlands.png)
*Format: mp3@CBR320kbps
*Size: 28MB

Tracklist:
1. Verstenigd En Verdelgd 07:00
2. Zwarte Sluiers Over Dode Gezichten 05:07
******************************
Total playing time: 12:07



Technical info
(IMG:http://metalarea.org/images/spectrogram/2019_Aug/d7db62b0654e98edd7cdbcaa4585491c.png)
Input File: 02 - Zwarte Sluiers Over Dode Gezichten.mp3
Channels : 2
Sample Rate : 44100
Precision : 16-bit
Duration : 00:05:07.64 = 13566836 samples = 23072.9 CDDA sectors
File Size : 12.5M
Bit Rate : 324k
Sample Encoding: MPEG audio (layer I, II or III)
Comments :
Title=Zwarte Sluiers Over Dode Gezichten
Artist=Dodenbezweerder
Album=Zwarte Sluiers
Tracknumber=2
Year=2019
Genre=Black Metal



Register


Go to the top of the page
  Insert nick Quick quote
+Quote Post

Reply to this topicStart new topic
2 User(s) are reading this topic (2 Guests and 0 Anonymous Users)
0 Members:

 



- Lo-Fi Version Support form
Copyrights and abuse reports form
Time is now: 22nd November 2019 - 11:57:37