Welcome Guest ( Log In | Register )

> И неформату есть предел.

Рэп/хип-хоп/шансон/поп удаляются. Для них есть свои порталы.

> Mr. Elevator & The Brain Hotel - Nico & Her Psychedelic Subconscious (2013), Psychedelic/Acid Rock
post Aug 4 2019, 19:26:41
Post #1

Правь статус, ####!111
**************
Group: Металариец
Posts: 42,462
Releases: 644
On Forums: 10 years 2 months
Thanks: 33322 time(s)
Russian Federation


(IMG:http://metalarea.org/images/audiocovers/2019_Aug/acov_tid325331_thumb.jpg)

*Artist: Mr. Elevator & The Brain Hotel
*Album: Nico & Her Psychedelic Subconscious
*Year: 2013
*Genre: Psychedelic/Acid Rock
*Country: United States (IMG:http://metalarea.org/forum/style_images/flags/United%20States.png)
*Format: mp3@CBR320kbps
*Size: 82MB

Tracklist:
1. Nico 05:52
2. & Her Psychedelic Subconscious 02:23
3. My Purple I 02:20
4. Mermaid Song 03:15
5. Sunshine Starlight 04:46
6. Right Where You Ought to Be 03:32
7. Grape Jelly (Jam) 02:18
8. Don't Hold Back 02:24
9. Velvet Night 04:12
10. Infinity 06:13
******************************
Total playing time: 37:15

(IMG:http://metalarea.org/images/youtube.png)

Technical info
(IMG:http://metalarea.org/images/spectrogram/2019_Aug/2f1525cf313b8834945927958927d60c.png)
Input File: 01 Nico.mp3
Channels : 2
Sample Rate : 44100
Precision : 16-bit
Duration : 00:05:52.96 = 15565668 samples = 26472.2 CDDA sectors
File Size : 14.1M
Bit Rate : 320k
Sample Encoding: MPEG audio (layer I, II or III)
Comments :
Title=Nico
Artist=Mr. Elevator & The Brain Hotel
Album=Nico… and Her Psychedelic Subconscious
Tracknumber=01/10
Year=2013
Genre=Psychedelic Rock



Register


Thanks:
Go to the top of the page
  Insert nick Quick quote
+Quote Post
 
Start new topic
Replies (1 - 1)
post Aug 5 2019, 08:28:55
Post #2

Правь статус, ####!111
**************
Group: Металариец
Posts: 42,462
Releases: 644
On Forums: 10 years 2 months
Thanks: 33322 time(s)
Russian Federation


Группа словно из 60-х (IMG:style_emoticons/default/20.gif)
Go to the top of the page
  Insert nick Quick quote
+Quote Post

Reply to this topicStart new topic
1 User(s) are reading this topic (1 Guests and 0 Anonymous Users)
0 Members:

 



- Lo-Fi Version Support form
Copyrights and abuse reports form
Time is now: 24th August 2019 - 03:56:05