Welcome Guest ( Log In | Register )

> Bethel - Northern Despondency [demo] (2017), Melodic Black Metal
post Aug 4 2019, 19:29:13
Post #1

𝕻𝕬𝕹𝕬𝕮𝕰𝕬
*******
Group: Металариец
Posts: 709
Releases: 401
On Forums: 7 years 5 months
Thanks: 6109 time(s)
Unknown


(IMG:http://metalarea.org/images/audiocovers/2019_Aug/acov_tid325332_thumb.jpg)

*Artist: Bethel
*Album: Northern Despondency [demo]
*Year: 2017
*Genre: Melodic Black Metal
*Country: Finland (IMG:http://metalarea.org/forum/style_images/flags/Finland.png)
*Format: mp3@CBR320kbps
*Size: 44MB

Tracklist:
1. Return To The Lands Of Dark & Frost 19:00
******************************
Total playing time: 19:00

Extended info
20 years after “Northern Supremacy” Bethel return with their second demo!


Technical info
(IMG:http://metalarea.org/images/spectrogram/2019_Aug/9f9df1bb6a20ff2d708e3fe5fe8e1555.png)
Input File: 01 - Return To The Lands Of Dark & Frost.mp3
Channels : 2
Sample Rate : 44100
Precision : 16-bit
Duration : 00:19:00.39 = 50291155 samples = 85529.2 CDDA sectors
File Size : 45.6M
Bit Rate : 320k
Sample Encoding: MPEG audio (layer I, II or III)
Comments :
Title=Return To The Lands Of Dark & Frost
Artist=Bethel
Album=Northern Despondency
Tracknumber=1
Year=2017
Genre=Black Metal



Register


Go to the top of the page
  Insert nick Quick quote
+Quote Post
 
Start new topic
Replies (1 - 1)
post Aug 6 2019, 17:09:01
Post #2

𝕻𝕬𝕹𝕬𝕮𝕰𝕬
*******
Group: Металариец
Posts: 709
Releases: 401
On Forums: 7 years 5 months
Thanks: 6109 time(s)
Unknown


Go to the top of the page
  Insert nick Quick quote
+Quote Post

Reply to this topicStart new topic
2 User(s) are reading this topic (2 Guests and 0 Anonymous Users)
0 Members:

 



- Lo-Fi Version Support form
Copyrights and abuse reports form
Time is now: 15th November 2019 - 14:34:34