Welcome Guest ( Log In | Register )

> И неформату есть предел.

Рэп/хип-хоп/шансон/поп удаляются. Для них есть свои порталы.

 
Reply to this topicStart new topic
> Mudfuck - Unforgivable (2019), Metalcore
post Aug 4 2019, 19:51:18
Post #1

MDM-Thrash Metal
**************
Group: Металариец
Posts: 8,564
Releases: 570
From: Одесса
On Forums: 12 years 1 week
Thanks: 16631 time(s)
Ukraine


(IMG:http://metalarea.org/images/audiocovers/2019_Aug/acov_tid325335_thumb.jpg)

*Artist: Mudfuck
*Album: Unforgivable
*Year: 2019
*Genre: Metalcore
*Country: United States (IMG:http://metalarea.org/forum/style_images/flags/United%20States.png)
*Format: mp3@CBR320kbps
*Size: 70MB

Tracklist:
01. Patriot
02. Unforgivable
03. Trash Man
04. Blue Life (feat. JJ Polachek)
05. Syndicate
06. Outrage
07. Heartless
******************************
Total playing time: 28:01


(IMG:http://metalarea.org/images/youtube.png)
(IMG:http://metalarea.org/images/youtube.png)

Technical info
(IMG:http://metalarea.org/images/spectrogram/2019_Aug/e9a218919fbd491f1c0cf7318b0d1d5f.png)
Input File: 02 - Unforgivable.mp3
Channels : 2
Sample Rate : 44100
Precision : 16-bit
Duration : 00:04:09.85 = 11018473 samples = 18738.9 CDDA sectors
File Size : 10.4M
Bit Rate : 334k
Sample Encoding: MPEG audio (layer I, II or III)
Comments :
Title=Unforgivable
Artist=Mudfuck
Album=Unforgivable
Tracknumber=2
Year=2019
Genre=Metal
Discnumber=1



Register


Thanks:
Go to the top of the page
  Insert nick Quick quote
+Quote Post

Reply to this topicStart new topic
1 User(s) are reading this topic (1 Guests and 0 Anonymous Users)
0 Members:

 



- Lo-Fi Version Support form
Copyrights and abuse reports form
Time is now: 24th August 2019 - 04:18:11