Welcome Guest ( Log In | Register )

> И неформату есть предел.

Рэп/хип-хоп/шансон/поп удаляются. Для них есть свои порталы.

> B. B. King - Completely Well (1969), Blues (D4)
post Aug 5 2019, 09:30:22
Post #1

Правь статус, ####!111
**************
Group: Металариец
Posts: 44,478
Releases: 687
On Forums: 10 years 6 months
Thanks: 35814 time(s)
Russian Federation


(IMG:http://metalarea.org/images/audiocovers/2019_Aug/acov_tid325341.jpg)

*Artist: B. B. King
*Album: Completely Well
*Year: 1969
*Genre: Blues
*Country: United States (IMG:http://metalarea.org/forum/style_images/flags/United%20States.png)
*Format: mp3@CBR320kbps
*Size: 124MB

Tracklist:
1. So Excited
2. No Good
3. You're Losin' Me
4. What Happened
5. Confessin' The Blues
6. Key To My Kingdom
7. Cryin' Won't Help You Now
8. You're Mean
9. The Thrill Is Gone
10. Fools Get Wise
******************************
Total playing time: 52:57

(IMG:http://metalarea.org/images/youtube.png)

Technical info
(IMG:http://metalarea.org/images/spectrogram/2019_Aug/e1af2cd98a3e5716fd1e46648b4f9a3d.png)
Input File: 02. No Good.mp3
Channels : 2
Sample Rate : 44100
Precision : 16-bit
Duration : 00:04:35.19 = 12135967 samples = 20639.4 CDDA sectors
File Size : 11.1M
Bit Rate : 321k
Sample Encoding: MPEG audio (layer I, II or III)
Comments :
Title=No Good
Artist=B.B. King
Album=Completely Well
Tracknumber=02
Year=2012
Genre=Blues | Chicago Blues | Delta Blues | Electric Blues | Modern Electric Blues | Regional Blues | Rhythm And Blues | Funk | Soul | Classic Blues



Register


Thanks:
Go to the top of the page
  Insert nick Quick quote
+Quote Post
 
Start new topic
Replies (1 - 4)
post Aug 5 2019, 19:42:18
Post #2

Правь статус, ####!111
**************
Group: Металариец
Posts: 44,478
Releases: 687
On Forums: 10 years 6 months
Thanks: 35814 time(s)
Russian Federation


Отличнейший альбом, многими почитающийся как вершина творчества.

А вот эта песня



не только визитная карточка исполнителя, но и одна из самых известных и культовых в мировом блюзе.
Go to the top of the page
  Insert nick Quick quote
+Quote Post
post Aug 5 2019, 19:45:31
Post #3
BAN
Banned till
Dec 18 2019, 20:30:32



мне у него прёт только Better Not Look Down, т.к. из любимого фильма. остальное я, в принципе, неособо слушал. краем уха случайно как и многие
Go to the top of the page
  Insert nick Quick quote
+Quote Post
post Aug 6 2019, 20:20:42
Post #4

Правь статус, ####!111
**************
Group: Металариец
Posts: 4,292
Releases: 0
From: Одесса
On Forums: 11 years 9 months
Thanks: 2552 time(s)
Unknown


Highly recommended (IMG:style_emoticons/default/9.gif)


Go to the top of the page
  Insert nick Quick quote
+Quote Post
post Aug 6 2019, 20:24:49
Post #5

Правь статус, ####!111
**************
Group: Металариец
Posts: 44,478
Releases: 687
On Forums: 10 years 6 months
Thanks: 35814 time(s)
Russian Federation


ЦИТАТА(babanguida @ Aug 6 2019, 23:20:42) *
Highly recommended (IMG:style_emoticons/default/9.gif)


It can be said about all releases of this performer. (IMG:style_emoticons/default/9.gif)


Thanks:
Go to the top of the page
  Insert nick Quick quote
+Quote Post

Reply to this topicStart new topic
1 User(s) are reading this topic (1 Guests and 0 Anonymous Users)
0 Members:

 



- Lo-Fi Version Support form
Copyrights and abuse reports form
Time is now: 8th December 2019 - 17:41:08