Welcome Guest ( Log In | Register )

> И неформату есть предел.

Рэп/хип-хоп/шансон/поп удаляются. Для них есть свои порталы.

> Iron Butterfly - Heavy (1968), Psychedelic/Acid/Hard Rock
post Aug 5 2019, 11:28:07
Post #1

Правь статус, ####!111
**************
Group: Металариец
Posts: 42,462
Releases: 644
On Forums: 10 years 2 months
Thanks: 33322 time(s)
Russian Federation


(IMG:http://metalarea.org/images/audiocovers/2019_Aug/acov_tid325347_thumb.png)

*Artist: Iron Butterfly
*Album: Heavy
*Year: 1968
*Genre: Psychedelic/Acid/Hard Rock
*Country: United States (IMG:http://metalarea.org/forum/style_images/flags/United%20States.png)
*Format: mp3@CBR320kbps
*Size: 66MB

Tracklist:
1. Possession 02:44
2. Unconscious Power 02:32
3. Get Out Of My Life, Woman 03:58
4. Gentle As It May Seem 02:28
5. You Can't Win 02:41
6. So-Lo 04:04
7. Look For The Sun 02:14
8. Fields Of Sun 03:12
9. Stamped Ideas 02:09
10. Iron Butterfly Theme 04:34
******************************
Total playing time: 30:36

(IMG:http://metalarea.org/images/youtube.png)

Technical info
(IMG:http://metalarea.org/images/spectrogram/2019_Aug/c5cf50ca033073b1c757c2ebe7c3d32d.png)
Input File: IRON BUTTERFLY - Heavy (1968) - 01. Possession.mp3
Channels : 2
Sample Rate : 44100
Precision : 16-bit
Duration : 00:02:46.56 = 7345384 samples = 12492.1 CDDA sectors
File Size : 6.66M
Bit Rate : 320k
Sample Encoding: MPEG audio (layer I, II or III)
Comments :
Title=Possession
Artist=Iron Butterfly
Album=Heavy
Tracknumber=1
Year=1968
Genre=Psychadelic



Register


Go to the top of the page
  Insert nick Quick quote
+Quote Post
 
Start new topic
Replies (1 - 1)
post Aug 5 2019, 19:43:57
Post #2

Правь статус, ####!111
**************
Group: Металариец
Posts: 42,462
Releases: 644
On Forums: 10 years 2 months
Thanks: 33322 time(s)
Russian Federation


Культ. (IMG:style_emoticons/default/pray.gif)
Go to the top of the page
  Insert nick Quick quote
+Quote Post

Reply to this topicStart new topic
1 User(s) are reading this topic (1 Guests and 0 Anonymous Users)
0 Members:

 



- Lo-Fi Version Support form
Copyrights and abuse reports form
Time is now: 24th August 2019 - 03:13:23