Welcome Guest ( Log In | Register )

> И неформату есть предел.

Рэп/хип-хоп/шансон/поп удаляются. Для них есть свои порталы.

> Captain Beefheart & His Magic Band - Trout Mask Replica (1969), Avant-Garde/Blues/Psychedelic Rock/Free Jazz
post Aug 5 2019, 11:55:58
Post #1

Правь статус, ####!111
**************
Group: Металариец
Posts: 42,462
Releases: 644
On Forums: 10 years 2 months
Thanks: 33322 time(s)
Russian Federation


(IMG:http://metalarea.org/images/audiocovers/2019_Aug/acov_tid325348_thumb.jpeg)

*Artist: Captain Beefheart & His Magic Band
*Album: Trout Mask Replica
*Year: 1969
*Genre: Avant-Garde/Blues/Psychedelic Rock/Free Jazz
*Country: United States (IMG:http://metalarea.org/forum/style_images/flags/United%20States.png)
*Format: mp3@CBR320kbps
*Size: 180MB

Tracklist:
1. Frownland
2. The Dust Blows Forward 'N The Dust Blows Back
3. Dachau Blues
4. Ella Guru
5. Hair Pie: Bake 1
6. Moonlight on Vermont
7. Pachuco Cadaver
8. Bills Corpse
9. Sweet Sweet Bulbs
10. Neon Meate Dream Of A Octafish
11. China Pig
12. My Human Gets Me Blues
13. Dali's Car
14. Hair Pie: Bake 2
15. Pena
16. Well
17. When Big Joan Sets Up
18. Fallin' Ditch
19. Sugar 'n' Spikes
20. Ant Man Bee
21. Orange Claw Hammer
22. Wild Life
23. She's Too Much For My Mirror
24. Hobo Chang Ba
25. The Blimp (Mousetrapreplica)
26. Steal Softly Thru Snow
27. Old Fart At Play
28. Veteran's Day Poppy
******************************
Total playing time: 1:18:51

(IMG:http://metalarea.org/images/youtube.png)

Technical info
(IMG:http://metalarea.org/images/spectrogram/2019_Aug/555032c7bbb5a66de661682a49f78bff.png)
Input File: 01 Frownland.mp3
Channels : 2
Sample Rate : 44100
Precision : 16-bit
Duration : 00:01:41.52 = 4477032 samples = 7614 CDDA sectors
File Size : 4.06M
Bit Rate : 320k
Sample Encoding: MPEG audio (layer I, II or III)
Comments :
Title=Frownland
Artist=Captain Beefheart & His Magic Band
Album=Trout Mask Replica
Tracknumber=1/28
Year=1969
Genre=Progressive Rock



Register


Go to the top of the page
  Insert nick Quick quote
+Quote Post
 
Start new topic
Replies (1 - 7)
post Aug 5 2019, 20:00:17
Post #2

Правь статус, ####!111
**************
Group: Металариец
Posts: 42,462
Releases: 644
On Forums: 10 years 2 months
Thanks: 33322 time(s)
Russian Federation


С Виктории

ЦИТАТА
Альбом 1969 года Trout Mask Replica, спродюсирован другом детства Ван Влиета Фрэнком Заппой. Этот альбом по сей день считается шедевром музыкального сюрреализма и одним из самых своеобразных альбомов в истории рок-музыки.

Коммерческого успеха Captain Beefheart никогда не имел. Однако принято считать, что доля его влияния на появившиеся позже музыкальные направления (панк, новая волна, пост-рок) и на следующие поколения музыкантов неисчислима.


Без малого, шедевр. (IMG:style_emoticons/default/9.gif)
Go to the top of the page
  Insert nick Quick quote
+Quote Post
post Aug 14 2019, 06:51:14
Post #3

Правь статус, ####!111
**************
Group: Металариец
Posts: 3,976
Releases: 0
From: Одесса
On Forums: 11 years 5 months
Thanks: 2085 time(s)
Unknown


This is how Ihsahn is aiming to sound ultimately.
Go to the top of the page
  Insert nick Quick quote
+Quote Post
post Aug 14 2019, 09:06:49
Post #4

Правь статус, ####!111
**************
Group: Металариец
Posts: 42,462
Releases: 644
On Forums: 10 years 2 months
Thanks: 33322 time(s)
Russian Federation


ЦИТАТА(babanguida @ Aug 14 2019, 09:51:14) *
This is how Ihsahn is aiming to sound ultimately.


You compare incomparable things.


Thanks:
(1) Ghostb,
Go to the top of the page
  Insert nick Quick quote
+Quote Post
post Aug 14 2019, 10:29:47
Post #5

Маньяк
**********
Group: Металариец
Posts: 1,447
Releases: 0
From: Харьков
On Forums: 9 years 10 months
Thanks: 540 time(s)
Ukraine


Классический альбом, да.

ЦИТАТА(babanguida @ Aug 14 2019, 08:51:14) *
This is how Ihsahn is aiming to sound ultimately

Я так не думаю, сам он совсем другие источники вдохновения называет. Гораздо более близкие к мейнстриму, хе-хе.
Go to the top of the page
  Insert nick Quick quote
+Quote Post
post Aug 14 2019, 10:52:38
Post #6

Правь статус, ####!111
**************
Group: Металариец
Posts: 3,976
Releases: 0
From: Одесса
On Forums: 11 years 5 months
Thanks: 2085 time(s)
Unknown


I was kidding.
That's a classic.


Thanks:
(1) Ghostb,
Go to the top of the page
  Insert nick Quick quote
+Quote Post
post Aug 14 2019, 10:55:41
Post #7

Правь статус, ####!111
**************
Group: Металариец
Posts: 42,462
Releases: 644
On Forums: 10 years 2 months
Thanks: 33322 time(s)
Russian Federation


ЦИТАТА(babanguida @ Aug 14 2019, 13:52:38) *
I was kidding.


Not funny my freund, not funny.
Go to the top of the page
  Insert nick Quick quote
+Quote Post
post Aug 14 2019, 21:58:58
Post #8

Правь статус, ####!111
**************
Group: Металариец
Posts: 42,462
Releases: 644
On Forums: 10 years 2 months
Thanks: 33322 time(s)
Russian Federation


ЦИТАТА(babanguida @ Aug 14 2019, 13:52:38) *
That's a classic.


Along with his 1967, yeah.
Go to the top of the page
  Insert nick Quick quote
+Quote Post

Reply to this topicStart new topic
1 User(s) are reading this topic (1 Guests and 0 Anonymous Users)
0 Members:

 



- Lo-Fi Version Support form
Copyrights and abuse reports form
Time is now: 24th August 2019 - 04:00:25