Welcome Guest ( Log In | Register )

> И неформату есть предел.

Рэп/хип-хоп/шансон/поп удаляются. Для них есть свои порталы.

> Os Mutantes - Os Mutantes (1968), Tropicália/Psychedelic/Progressive Rock
post Aug 5 2019, 12:51:32
Post #1

Правь статус, ####!111
**************
Group: Металариец
Posts: 42,462
Releases: 644
On Forums: 10 years 2 months
Thanks: 33322 time(s)
Russian Federation


(IMG:http://metalarea.org/images/audiocovers/2019_Aug/acov_tid325350_thumb.jpg)

*Artist: Os Mutantes
*Album: Os Mutantes
*Year: 1968
*Genre: Tropicália/Psychedelic/Progressive Rock
*Country: Brazil (IMG:http://metalarea.org/forum/style_images/flags/Brazil.png)
*Format: mp3@CBR320kbps
*Size: 76MB

Tracklist:
1. Panis et Circenses
2. A Minha Menina
3. O Relógio
4. Adeus Maria Fulô
5. Baby
6. Senhor F
7. Bat Macumba
8. Le Premier Bonheur du Jour
9. Trem Fantasma
10. Tempo no Tempo (Once Was a Time I Thought)
11. Ave Gengis Khan
******************************
Total playing time: 35:52

(IMG:http://metalarea.org/images/youtube.png)

Technical info
(IMG:http://metalarea.org/images/spectrogram/2019_Aug/0dbdf1fc53eeb1350d09313b0b8f6870.png)
Input File: 01 - Panis et Circenses.mp3
Channels : 2
Sample Rate : 44100
Precision : 16-bit
Duration : 00:03:37.08 = 9573096 samples = 16280.8 CDDA sectors
File Size : 8.72M
Bit Rate : 321k
Sample Encoding: MPEG audio (layer I, II or III)
Comments :
Title=Panis et Circenses
Artist=Os Mutantes
Album=Os Mutantes
Tracknumber=1
Year=1968



Register


Thanks:
Go to the top of the page
  Insert nick Quick quote
+Quote Post
 
Start new topic
Replies (1 - 1)
post Aug 5 2019, 19:47:27
Post #2

Правь статус, ####!111
**************
Group: Металариец
Posts: 42,462
Releases: 644
On Forums: 10 years 2 months
Thanks: 33322 time(s)
Russian Federation


Также уже классический альбом.
Go to the top of the page
  Insert nick Quick quote
+Quote Post

Reply to this topicStart new topic
1 User(s) are reading this topic (1 Guests and 0 Anonymous Users)
0 Members:

 



- Lo-Fi Version Support form
Copyrights and abuse reports form
Time is now: 24th August 2019 - 03:35:12