Welcome Guest ( Log In | Register )

> И неформату есть предел.

Рэп/хип-хоп/шансон/поп удаляются. Для них есть свои порталы.

> Betrayers - Let The Good Times Die (2014), Psychedelic/Fuzz Rock
post Aug 5 2019, 18:34:40
Post #1

Правь статус, ####!111
**************
Group: Металариец
Posts: 44,478
Releases: 687
On Forums: 10 years 6 months
Thanks: 35814 time(s)
Russian Federation


(IMG:http://metalarea.org/images/audiocovers/2019_Aug/acov_tid325371_thumb.jpg)

*Artist: Betrayers
*Album: Let The Good Times Die
*Year: 2014
*Genre: Psychedelic/Fuzz Rock
*Country: Canada (IMG:http://metalarea.org/forum/style_images/flags/Canada.png)
*Format: mp3@CBR320kbps
*Size: 85MB

Tracklist:
1. Spinnin' Wheel 02:52
2. Cherry Beach 02:51
3. Ain't No Lie 01:42
4. Hey Now Mary 02:38
5. Creep For Me 02:06
6.Do You Smoke? 03:39 .
7. White Horse 02:28
8. Song For Sue 01:39
9. Little Girl (You've Got Some Growin' Up To Do) 02:16
10. Born To Cry 02:40
11. Thin Gold Chain 02:03
12. You Trip Me Out 03:50
13. Too Much Fun 02:19
******************************
Total playing time: 33:03



Technical info
(IMG:http://metalarea.org/images/spectrogram/2019_Aug/45cdb30c6f074e206cc506a45ad2820f.png)
Input File: 01 spinnin\' wheel.mp3
Channels : 2
Sample Rate : 44100
Precision : 16-bit
Duration : 00:02:52.81 = 7621009 samples = 12960.9 CDDA sectors
File Size : 7.09M
Bit Rate : 328k
Sample Encoding: MPEG audio (layer I, II or III)
Comments :
Title=Spinnin' Wheel
Artist=Betrayers
Album=Let the Good Times Die
Tracknumber=1



Register


Go to the top of the page
  Insert nick Quick quote
+Quote Post
 
Start new topic
Replies (1 - 1)
post Aug 5 2019, 19:42:59
Post #2

Правь статус, ####!111
**************
Group: Металариец
Posts: 44,478
Releases: 687
On Forums: 10 years 6 months
Thanks: 35814 time(s)
Russian Federation


Отличный чилловый фузз...
Go to the top of the page
  Insert nick Quick quote
+Quote Post

Reply to this topicStart new topic
1 User(s) are reading this topic (1 Guests and 0 Anonymous Users)
0 Members:

 



- Lo-Fi Version Support form
Copyrights and abuse reports form
Time is now: 8th December 2019 - 16:36:29