Welcome Guest ( Log In | Register )

> И неформату есть предел.

Рэп/хип-хоп/шансон/поп удаляются. Для них есть свои порталы.

> Зоопарк - Blues De Moscou [live] (1981), Blues Rock
post Aug 5 2019, 19:17:45
Post #1

Правь статус, ####!111
**************
Group: Металариец
Posts: 42,462
Releases: 644
On Forums: 10 years 2 months
Thanks: 33322 time(s)
Russian Federation


(IMG:http://metalarea.org/images/audiocovers/2019_Aug/acov_tid325374_thumb.jpeg)

*Artist: Зоопарк
*Album: Blues De Moscou [live]
*Year: 1981
*Genre: Blues Rock
*Country: Russian Federation (IMG:http://metalarea.org/forum/style_images/flags/Russian%20Federation.png)
*Format: mp3@CBR320kbps
*Size: 148MB

Tracklist:
1. Странные Дни
2. Если Будет Дождь
3. Когда Я Знал Тебя Совсем Другой
4. Позвони Мне Рано Утром
5. Блюз Субботнего Вечера
6. Все В Порядке
7. Седьмая Глава
8. Блюз Твоей Реки
9. Если Хочешь
10. Прощай,Детка!
11. Сладкая N
12. Дрянь
13. Страх В Твоих Глазах
14. Пригородный Блюз
15. Женщина
16. Звезда Рок-н-ролла
17. Ода Ванной Комнате
18. Горький Ангел
19. Пригородный Блюз N2
20. Blues de Moscou part 2
******************************
Total playing time: 1:07:48

(IMG:http://metalarea.org/images/youtube.png)

Technical info
(IMG:http://metalarea.org/images/spectrogram/2019_Aug/4418468f75eca6e23873958879ae72e7.png)
Input File: 01Странные Дни.mp3
Channels : 2
Sample Rate : 44100
Precision : 16-bit
Duration : 00:03:04.36 = 8130232 samples = 13826.9 CDDA sectors
File Size : 7.37M
Bit Rate : 320k
Sample Encoding: MPEG audio (layer I, II or III)
Comments :
Title=Странные Дни
Artist=Зоопарк
Album=Blues De Moscou
Tracknumber=01/20
Year=1981
Genre=Rock



Register


Thanks:
Go to the top of the page
  Insert nick Quick quote
+Quote Post
 
Start new topic
Replies (1 - 4)
post Aug 5 2019, 19:52:19
Post #2

Правь статус, ####!111
**************
Group: Металариец
Posts: 42,462
Releases: 644
On Forums: 10 years 2 months
Thanks: 33322 time(s)
Russian Federation


Первопроходец советского блюза. Жаль, здесь нет песенки Гопники (IMG:style_emoticons/default/20.gif)



Go to the top of the page
  Insert nick Quick quote
+Quote Post
post Aug 7 2019, 15:23:59
Post #3

Правь статус, ####!111
**************
Group: Металариец
Posts: 42,462
Releases: 644
On Forums: 10 years 2 months
Thanks: 33322 time(s)
Russian Federation


Текст Гопничков до сих пор актуален. (IMG:style_emoticons/default/1488.gif) Хоть гопшанских и не встречаетя почти, в отличие от алкашей и синеботов, ну они в России всегда будут.

ЦИТАТА
Кто это идет, сметая все на своем пути
Кто одет в цветную рубашку и красные носки?
У кого на ногах из черной резины грязные сапоги?
Это гопники!
Это гопники!
Это гопники!
Они мешают мне жить!
Кто слушает "хэви-металл", Арабесок и Оттаван
Кто бьет друг другу морду, когда бывает пьян?
У кого крутые подруги, за которых не дашь и рубля?
Кто не может связать двух слов, не ввязав между ними ноту "ля"?
Это гопники!
Это гопники!
Это гопники!
Они мешают мне жить!
Кто хлещет в жару портвейн, кто не греет пива зимой
Кто плюется как верблюд, кто смеется как козодой?
Кто гадит в наших парадных, кто блюет в вагонах метро
Кто всегда готов подбить нам глаз и всадить вам в бок перо?
Это гопники!
Это гопники!
Это гопнички!…


Ну и этот трэкчанский великолепен



Да так то, о чем базлан. здесь уже каждый трэк - классика.

Жаль, Майк не получил большего признания.
Go to the top of the page
  Insert nick Quick quote
+Quote Post
post Aug 9 2019, 18:02:28
Post #4

Два Литра
**
Group: Завсегдатай
Posts: 184
Releases: 0
From: Kiev
On Forums: 10 years 7 months
Thanks: 39 time(s)
Ukraine


А когде это гопники слушали "хэви-металл" ? (IMG:style_emoticons/default/sirt.gif)
Go to the top of the page
  Insert nick Quick quote
+Quote Post
post Aug 19 2019, 08:43:17
Post #5

Правь статус, ####!111
**************
Group: Металариец
Posts: 42,462
Releases: 644
On Forums: 10 years 2 months
Thanks: 33322 time(s)
Russian Federation


ЦИТАТА(Bruce @ Aug 9 2019, 21:02:28) *
А когде это гопники слушали "хэви-металл" ? (IMG:style_emoticons/default/sirt.gif)


Когда Майк писал эту песню. (IMG:style_emoticons/default/look.gif)
Go to the top of the page
  Insert nick Quick quote
+Quote Post

Reply to this topicStart new topic
1 User(s) are reading this topic (1 Guests and 0 Anonymous Users)
0 Members:

 



- Lo-Fi Version Support form
Copyrights and abuse reports form
Time is now: 24th August 2019 - 04:35:13