Welcome Guest ( Log In | Register )

> И неформату есть предел.

Рэп/хип-хоп/шансон/поп удаляются. Для них есть свои порталы.

 
Reply to this topicStart new topic
> The Blue Letter - Prima Facie [ep] (2007), Post-Metal/Screamo
post Aug 5 2019, 22:51:55
Post #1

Три Литра
***
Group: Завсегдатай
Posts: 229
Releases: 17
On Forums: 9 years 10 months
Thanks: 396 time(s)
United States


(IMG:https://metalarea.org/images/audiocovers/2019_Aug/acov_tid325380_thumb.jpg)

*Artist: The Blue Letter
*Album: Prima Facie [ep]
*Year: 2007
*Genre: Post-Metal/Screamo
*Country: United States (IMG:https://metalarea.org/forum/style_images/flags/United%20States.png)
*Format: mp3@VBR207kbps
*Size: 59MB

Tracklist:
1. Your Love in the Morning 5:13
2. This Window Is Made of One-Way Glass 5:04
3. We'll Cut Down the Trees and Name Our Streets After Them 7:51
4. Moved In 98 14:09
5. Without a Warning We Disappeared 4:57
6. Your Faithfulness At Night 1:54
******************************
Total playing time: 39:08

Technical info
(IMG:https://metalarea.org/images/spectrogram/2019_Aug/0496cfd5b7b0af369378557e15189e9f.png)
Input File: 06-the_blue_letter-your_faithfulness_at_night.mp3
Channels : 2
Sample Rate : 44100
Precision : 16-bit
Duration : 00:01:54.78 = 5061886 samples = 8608.65 CDDA sectors
File Size : 2.57M
Bit Rate : 179k
Sample Encoding: MPEG audio (layer I, II or III)
Comments :
Title=Your Faithfulness At Night
Artist=The Blue Letter
Album=Prima Facie
Tracknumber=6/6
Year=2007-07-24
Genre=Post-Metal/Screamo



Register


Go to the top of the page
  Insert nick Quick quote
+Quote Post

Reply to this topicStart new topic
1 User(s) are reading this topic (1 Guests and 0 Anonymous Users)
0 Members:

 



- Lo-Fi Version Support form
Copyrights and abuse reports form
Time is now: 8th December 2019 - 18:06:43