Welcome Guest ( Log In | Register )

> Правила / Rules

Тут только для чтения лежат низкобитрейтные (<192kbps) релизы, для которых есть аналоги в высокобитрейтных форумах.

Here goes (and stand in read only mode) low bitrate releases (<192kbps) which were already replaced by high bitrate releases in corresponding forums.

Причина закрытия (Абигор 08-08-2019): Temple - The Last Pact (2019)
 
Closed TopicStart new topic
> Temple - The Last Pact (2019), Black Metal (D11)
post Aug 6 2019, 09:11:48
Post #1

Правь статус, ####!111
**************
Group: Металариец
Posts: 19,790
Releases: 13420
From: Г.Харьков
On Forums: 7 years 6 months
Thanks: 232086 time(s)
Unknown


(IMG:http://metalarea.org/images/audiocovers/2019_Aug/acov_tid325391_thumb.jpg)

*Artist: Temple
*Album: The Last Pact
*Year: 2019
*Genre: Black Metal
*Country: Switzerland (IMG:http://metalarea.org/forum/style_images/flags/Switzerland.png)
*Format: mp3@CBR320kbps
*Size: 104MB

Tracklist:
1. Intro
2. XI pact
3. Crown of Thorns
4. Deliverance
5. Eternal Embrace
6. Whispers
7. Underneath
8. Weeding, Satan and Blood
9. Outro (The End of a Dream)
******************************
Total playing time: 46:09

(IMG:http://metalarea.org/images/youtube.png)


Extended info
В Лоу


Technical info
(IMG:http://metalarea.org/images/spectrogram/2019_Aug/f0310cb4d29e2241af6a091e91261453.png)
Input File: 03 - Crown of Thorns.mp3
Channels : 2
Sample Rate : 44100
Precision : 16-bit
Duration : 00:05:13.85 = 13840741 samples = 23538.7 CDDA sectors
File Size : 12.6M
Bit Rate : 320k
Sample Encoding: MPEG audio (layer I, II or III)
Comments :
Title=Crown of Thorns
Artist=Temple
Album=The Last Pact
Tracknumber=3
Year=2019
Genre=Black Metal



Register


Go to the top of the page
  Insert nick Quick quote
+Quote Post

Причина закрытия (Абигор 08-08-2019): Temple - The Last Pact (2019)
Closed TopicStart new topic
2 User(s) are reading this topic (2 Guests and 0 Anonymous Users)
0 Members:

 



- Lo-Fi Version Support form
Copyrights and abuse reports form
Time is now: 7th December 2019 - 17:21:30