Welcome Guest ( Log In | Register )

> И неформату есть предел.

Рэп/хип-хоп/шансон/поп удаляются. Для них есть свои порталы.

> Various Artists - Brown Acid: The Sixth Trip [compilation] (2018), Proto Metal/Hard/Psychedelic/Garage Rock/Heavy Psych (D2135)
post Aug 6 2019, 10:23:36
Post #1

Правь статус, ####!111
**************
Group: Металариец
Posts: 42,462
Releases: 644
On Forums: 10 years 2 months
Thanks: 33322 time(s)
Russian Federation


(IMG:http://metalarea.org/images/audiocovers/2019_Aug/acov_tid325394_thumb.jpg)

*Artist: Various Artists
*Album: Brown Acid: The Sixth Trip [compilation]
*Year: 2018
*Genre: Proto Metal/Hard/Psychedelic/Garage Rock/Heavy Psych
*Country: Many (IMG:http://metalarea.org/forum/style_images/flags/Many.png)
*Format: mp3@CBR320kbps
*Size: 81MB

Tracklist:
1. Gold - No Parking 02:38
2. Heat Exchange - Inferno 03:52
3. Travis - Lovin' You 03:20
4. Enoch Smoky - It's Cruel 03:37
5. Backwood Memory - Give Me Time 02:31
6. Flight - Lovin', Huggin' & More 02:45
7. Truth & Janey - Midnight Horsemen 03:08
8. West Minst'r - My Life 03:18
9. Purgatory - Polar Expedition 02:33
10. Johnny Barnes - Steele Rail Blues 04:35
11. Zendik - Is There No Peace 03:07
******************************
Total playing time: 35:24



Technical info
(IMG:http://metalarea.org/images/spectrogram/2019_Aug/845efbe4399ed389291b0dda8ebfc1d2.png)
Input File: 01 Gold - No Parking.mp3
Channels : 2
Sample Rate : 44100
Precision : 16-bit
Duration : 00:02:38.16 = 6974724 samples = 11861.8 CDDA sectors
File Size : 6.33M
Bit Rate : 320k
Sample Encoding: MPEG audio (layer I, II or III)
Comments :
Title=No Parking
Artist=Gold
Album=Brown Acid: The Sixth Trip
Tracknumber=01/11
Year=2018
Genre=Heavy Psych/Hard Rock



Register


Thanks:
(1) marilin,
Go to the top of the page
  Insert nick Quick quote
+Quote Post
 
Start new topic
Replies (1 - 3)
post Aug 6 2019, 11:04:33
Post #2

Правь статус, ####!111
**************
Group: Металариец
Posts: 42,462
Releases: 644
On Forums: 10 years 2 months
Thanks: 33322 time(s)
Russian Federation


Очень удачная компиляция всякого редкого - неизданного от авторитетного лэйбла.

Есть остальные 5 частей, кого заинтересовало - пишите, залью. (IMG:style_emoticons/default/smile1.gif)
Go to the top of the page
  Insert nick Quick quote
+Quote Post
post Aug 6 2019, 14:31:07
Post #3

Dark Ambient Shoujo
**********
Group: Металариец
Posts: 1,148
Releases: 1
On Forums: 10 years 7 months
Thanks: 573 time(s)
Russian Federation


ЦИТАТА
Proto Metal

Эстетик, перелогинься!
Go to the top of the page
  Insert nick Quick quote
+Quote Post
post Aug 6 2019, 14:34:38
Post #4

Правь статус, ####!111
**************
Group: Металариец
Posts: 42,462
Releases: 644
On Forums: 10 years 2 months
Thanks: 33322 time(s)
Russian Federation


ЦИТАТА(Dreamtale @ Aug 6 2019, 17:31:07) *
Эстетик, перелогинься!


Что вас не устраивает?

Это вполне себе обозначение, которое используется уже не первый год и не одно десятилетие даже.
Go to the top of the page
  Insert nick Quick quote
+Quote Post

Reply to this topicStart new topic
1 User(s) are reading this topic (1 Guests and 0 Anonymous Users)
0 Members:

 



- Lo-Fi Version Support form
Copyrights and abuse reports form
Time is now: 24th August 2019 - 03:27:19