Welcome Guest ( Log In | Register )

 
Reply to this topicStart new topic
> Black Market Currency - American Class Warfare (2019), Groove/Thrash Metal
post Aug 6 2019, 13:37:26
Post #1

Serial Uploader
Group Icon
Group: V.I.P
Posts: 37,133
Releases: 35317
From: Lithuania
On Forums: 11 years 11 months
Thanks: 419536 time(s)
Lithuania


(IMG:https://metalarea.org/images/audiocovers/2019_Aug/acov_tid325400_thumb.jpg)

*Artist: Black Market Currency
*Album: American Class Warfare
*Year: 2019
*Genre: Groove/Thrash Metal
*Country: United States (IMG:https://metalarea.org/forum/style_images/flags/United%20States.png)
*Format: mp3@CBR320kbps
*Size: 67MB

Tracklist:
01. Downfall
02. American Class Warfare
03. Curbstomp
04. Reflection
05. Coveted
06. Lines
07. Demons
******************************
Total playing time: 29:07




Technical info
(IMG:https://metalarea.org/images/spectrogram/2019_Aug/960a341b33e68ec933aa86c47b5be559.png)
Input File: 02. American Class Warfare.mp3
Channels : 2
Sample Rate : 44100
Precision : 16-bit
Duration : 00:04:05.46 = 10824918 samples = 18409.7 CDDA sectors
File Size : 10.3M
Bit Rate : 335k
Sample Encoding: MPEG audio (layer I, II or III)
Comments :
Title=American Class Warfare
Artist=Black Market Currency
Album=American Class Warfare
Tracknumber=2/7
Year=2019



Register


Go to the top of the page
  Insert nick Quick quote
+Quote Post

Reply to this topicStart new topic
1 User(s) are reading this topic (1 Guests and 0 Anonymous Users)
0 Members:

 



- Lo-Fi Version Support form
Copyrights and abuse reports form
Time is now: 4th June 2020 - 18:39:34