Welcome Guest ( Log In | Register )

> И неформату есть предел.

Рэп/хип-хоп/шансон/поп удаляются. Для них есть свои порталы.

> Jail Born Jane - Grave Rock (2019), 70´s Hard Rock/Heavy Psych
post Aug 6 2019, 14:36:38
Post #1

Правь статус, ####!111
**************
Group: Металариец
Posts: 42,300
Releases: 638
On Forums: 10 years 2 months
Thanks: 33137 time(s)
Russian Federation


(IMG:http://metalarea.org/images/audiocovers/2019_Aug/acov_tid325405_thumb.jpg)

*Artist: Jail Born Jane
*Album: Grave Rock
*Year: 2019
*Genre: 70´s Hard Rock/Heavy Psych
*Country: Belarus (IMG:http://metalarea.org/forum/style_images/flags/Belarus.png)
*Format: mp3@CBR320kbps
*Size: 59MB

Tracklist:
1. Grave Rock 02:38
2. Небо Золотого Цвета 03:23
3. Я Покажу Тебе Магию 03:33
4. Doom Machine 05:00
5. С Дьяволом Наперегонки 02:12
6. Дверь За Моей Спиной 03:05
7. Laurie Laveau 03:04
8. Рыцари Ночи 02:27
******************************
Total playing time: 25:22



Technical info
(IMG:http://metalarea.org/images/spectrogram/2019_Aug/1de65c13986f5c089b697bc53c7d4379.png)
Input File: Jail Born Jane - Grave Rock - 01 Grave Rock.mp3
Channels : 2
Sample Rate : 44100
Precision : 16-bit
Duration : 00:02:38.57 = 6993025 samples = 11892.9 CDDA sectors
File Size : 6.38M
Bit Rate : 322k
Sample Encoding: MPEG audio (layer I, II or III)
Comments :
Title=Grave Rock
Artist=Jail Born Jane
Album=Grave Rock
Tracknumber=1
Year=2019



Register


Go to the top of the page
  Insert nick Quick quote
+Quote Post
 
Start new topic
Replies (1 - 1)
post Aug 6 2019, 16:47:50
Post #2

Правь статус, ####!111
**************
Group: Металариец
Posts: 42,300
Releases: 638
On Forums: 10 years 2 months
Thanks: 33137 time(s)
Russian Federation


Закос под самого раннего Оззи.

Небезынтересно.
Go to the top of the page
  Insert nick Quick quote
+Quote Post

Reply to this topicStart new topic
2 User(s) are reading this topic (2 Guests and 0 Anonymous Users)
0 Members:

 



- Lo-Fi Version Support form
Copyrights and abuse reports form
Time is now: 17th August 2019 - 22:10:35