Welcome Guest ( Log In | Register )

> И неформату есть предел.

Рэп/хип-хоп/шансон/поп удаляются. Для них есть свои порталы.

> The Reverberations - Mess Up Your Mind (2016), 60´s Psychedelic Rock
post Aug 7 2019, 10:39:23
Post #1

Правь статус, ####!111
**************
Group: Металариец
Posts: 42,300
Releases: 638
On Forums: 10 years 2 months
Thanks: 33137 time(s)
Russian Federation


(IMG:http://metalarea.org/images/audiocovers/2019_Aug/acov_tid325428_thumb.jpg)

*Artist: The Reverberations
*Album: Mess Up Your Mind
*Year: 2016
*Genre: 60´s Psychedelic Rock
*Country: United States (IMG:http://metalarea.org/forum/style_images/flags/United%20States.png)
*Format: mp3@CBR320kbps
*Size: 68MB

Tracklist:
1. You Better Run 02:59
2. Mess Up Your Mind 02:42
3. Outtasite 02:47
4. Mystery 02:47
5. Succubus 03:38
6. Wild 02:03
7. No No No 02:13
8. I'm Not There 02:18
9. Get What You Deserve 02:24
10. Don't Hurt My Pride 02:20
11. You're Mine All Mine 04:28
******************************
Total playing time: 30:39



Technical info
(IMG:http://metalarea.org/images/spectrogram/2019_Aug/5d33adce956662f12e028b44c338c789.png)
Input File: 01 - The Reverberations - You Better Run.mp3
Channels : 2
Sample Rate : 44100
Precision : 16-bit
Duration : 00:03:00.83 = 7974559 samples = 13562.2 CDDA sectors
File Size : 7.23M
Bit Rate : 320k
Sample Encoding: MPEG audio (layer I, II or III)
Comments :
Title=You Better Run
Artist=The Reverberations
Album=Mess Up Your Mind
Year=2016
Genre=Garage Rock



Register


Thanks:
Go to the top of the page
  Insert nick Quick quote
+Quote Post
 
Start new topic
Replies (1 - 1)
post Aug 8 2019, 08:37:59
Post #2

Правь статус, ####!111
**************
Group: Металариец
Posts: 42,300
Releases: 638
On Forums: 10 years 2 months
Thanks: 33137 time(s)
Russian Federation


Ребята как будто изобрели машину времени и метнулись в 1960-е.

Получилось очень аутентично.
Go to the top of the page
  Insert nick Quick quote
+Quote Post

Reply to this topicStart new topic
1 User(s) are reading this topic (1 Guests and 0 Anonymous Users)
0 Members:

 



- Lo-Fi Version Support form
Copyrights and abuse reports form
Time is now: 17th August 2019 - 22:12:02