Welcome Guest ( Log In | Register )

> И неформату есть предел.

Рэп/хип-хоп/шансон/поп удаляются. Для них есть свои порталы.

> Константин Никольский - Один Взгляд Назад (1996), Blues Rock
post Aug 7 2019, 16:25:04
Post #1

Правь статус, ####!111
**************
Group: Металариец
Posts: 42,462
Releases: 644
On Forums: 10 years 2 months
Thanks: 33322 time(s)
Russian Federation


(IMG:http://metalarea.org/images/audiocovers/2019_Aug/acov_tid325438_thumb.jpg)

*Artist: Константин Никольский
*Album: Один Взгляд Назад
*Year: 1996
*Genre: Blues Rock
*Country: Russian Federation (IMG:http://metalarea.org/forum/style_images/flags/Russian%20Federation.png)
*Format: mp3@CBR320kbps
*Size: 104MB

Tracklist:
1. Зеркало мира
2. Один взгляд назад
3. Ночная птица
4. Мой друг художник и поэт
5. В моей душе осадок зла
6. Птицы белые мои
7. Музыкант
8. Я сам из тех...
9. Воскресенье
10. Когда поймешь умом...
******************************
Total playing time: 48:00

(IMG:http://metalarea.org/images/youtube.png)

Technical info
(IMG:http://metalarea.org/images/spectrogram/2019_Aug/84125446b42d9fde7e0a55875c14bd7c.png)
Input File: 01 - Зеркало мира.mp3
Channels : 2
Sample Rate : 48000
Precision : 16-bit
Duration : 00:05:11.64 = 14958864 samples ~ 23373.2 CDDA sectors
File Size : 12.6M
Bit Rate : 323k
Sample Encoding: MPEG audio (layer I, II or III)
Comments :
Title=Зеркало мира
Artist=Константин Никольский
Album=Один взгляд назад
Tracknumber=01
Year=1996
Genre=Rock



Register


Thanks:
Go to the top of the page
  Insert nick Quick quote
+Quote Post
 
Start new topic
Replies (1 - 1)
post Aug 8 2019, 14:39:59
Post #2

Правь статус, ####!111
**************
Group: Металариец
Posts: 42,462
Releases: 644
On Forums: 10 years 2 months
Thanks: 33322 time(s)
Russian Federation


Классика.

Один взгляд назад , Мой друг художник и поэт, В моей душе осадок зла - платиновое наследие российской музыки. (IMG:style_emoticons/default/pray.gif)
Go to the top of the page
  Insert nick Quick quote
+Quote Post

Reply to this topicStart new topic
1 User(s) are reading this topic (1 Guests and 0 Anonymous Users)
0 Members:

 



- Lo-Fi Version Support form
Copyrights and abuse reports form
Time is now: 24th August 2019 - 04:09:11