Welcome Guest ( Log In | Register )

> Temple - The Last Pact (2019), Black Metal (D12)
post Aug 8 2019, 08:17:53
Post #1

Правь статус, ####!111
**************
Group: Металариец
Posts: 4,605
Releases: 1336
From: Brazil
On Forums: 8 years 7 months
Thanks: 49906 time(s)
Brazil


(IMG:https://metalarea.org/images/audiocovers/2019_Aug/acov_tid325462_thumb.jpg)

*Artist: Temple
*Album: The Last Pact
*Year: 2019
*Genre: Black Metal
*Country: Switzerland (IMG:https://metalarea.org/forum/style_images/flags/Switzerland.png)
*Format: mp3@CBR320kbps
*Size: 106MB

Tracklist:
1. Intro
2. XI pact
3. Crown of Thorns
4. Deliverance
5. Eternal Embrace
6. Whispers
7. Underneath
8. Weeding, Satan and Blood
9. Outro (The End of a Dream)
******************************
Total playing time: 46:10

Technical info
(IMG:https://metalarea.org/images/spectrogram/2019_Aug/e9009d745c6cf86059afb5bc8431ad3a.png)
Input File: 03 Crown of Thorns.mp3
Channels : 2
Sample Rate : 44100
Precision : 16-bit
Duration : 00:05:15.08 = 13895028 samples = 23631 CDDA sectors
File Size : 12.6M
Bit Rate : 320k
Sample Encoding: MPEG audio (layer I, II or III)
Comments :
Title=Crown of Thorns
Artist=Temple
Album=The Last Pact
Tracknumber=3
Year=2019



Register


Go to the top of the page
  Insert nick Quick quote
+Quote Post
 
Start new topic
Replies (1 - 2)
post Aug 8 2019, 13:04:08
Post #2

...
**************
Group: Металариец
Posts: 3,451
Releases: 1453
From: МЕЩЁРА
On Forums: 12 years 5 months
Thanks: 42079 time(s)
Russian Federation



Go to the top of the page
  Insert nick Quick quote
+Quote Post
post Aug 8 2019, 17:44:40
Post #3

Два Литра
**
Group: Завсегдатай
Posts: 194
Releases: 5
On Forums: 8 years 7 months
Thanks: 300 time(s)
Ukraine


Sweet album. The link has expired. Here's a mirror (@320):

Register


Go to the top of the page
  Insert nick Quick quote
+Quote Post

Reply to this topicStart new topic
1 User(s) are reading this topic (1 Guests and 0 Anonymous Users)
0 Members:

 



- Lo-Fi Version Support form
Copyrights and abuse reports form
Time is now: 26th September 2020 - 20:29:23