Welcome Guest ( Log In | Register )

> И неформату есть предел.

Рэп/хип-хоп/шансон/поп удаляются. Для них есть свои порталы.

> Pixies - Surfer Rosa (1988), Alternative Rock
post Aug 8 2019, 09:59:47
Post #1

Правь статус, ####!111
**************
Group: Металариец
Posts: 42,462
Releases: 644
On Forums: 10 years 2 months
Thanks: 33322 time(s)
Russian Federation


(IMG:http://metalarea.org/images/audiocovers/2019_Aug/acov_tid325467_thumb.jpg)

*Artist: Pixies
*Album: Surfer Rosa
*Year: 1988
*Genre: Alternative Rock
*Country: United States (IMG:http://metalarea.org/forum/style_images/flags/United%20States.png)
*Format: mp3@CBR320kbps
*Size: 79MB

Tracklist:
1. Bone Machine
2. Break My Body
3. Something Against You
4. Broken Face
5. Gigantic
6. River Euphrates
7. Where Is My Mind?
8. Cactus
9. Tony’s Theme
10. Oh My Golly!
11. You Fucking Die! I Said...
12. Vamos
13. I’m Amazed
14. Brick Is Red
******************************
Total playing time: 33:33

(IMG:http://metalarea.org/images/youtube.png)

Technical info
(IMG:http://metalarea.org/images/spectrogram/2019_Aug/234fc970fb6788750ef3b73ccb0e76b4.png)
Input File: 01. Bone Machine.mp3
Channels : 2
Sample Rate : 44100
Precision : 16-bit
Duration : 00:03:02.48 = 8047280 samples = 13685.9 CDDA sectors
File Size : 7.44M
Bit Rate : 326k
Sample Encoding: MPEG audio (layer I, II or III)
Comments :
Title=Bone Machine
Artist=Pixies
Album=Surfer Rosa
Tracknumber=01/14
Year=1988
Genre=Alt. Rock / Indie Rock



Register


Go to the top of the page
  Insert nick Quick quote
+Quote Post
 
Start new topic
Replies (1 - 7)
post Aug 8 2019, 10:13:02
Post #2

Правь статус, ####!111
**************
Group: Металариец
Posts: 42,462
Releases: 644
On Forums: 10 years 2 months
Thanks: 33322 time(s)
Russian Federation


Классика.


Go to the top of the page
  Insert nick Quick quote
+Quote Post
post Aug 10 2019, 14:45:55
Post #3

Шесть Литров
******
Group: Металариец
Posts: 665
Releases: 1
From: Россия, Санкт-Петербург
On Forums: 11 years 3 months
Thanks: 82 time(s)
Russian Federation


Всю прошлую неделю слушал. Альбом - шедевр


Thanks:
Go to the top of the page
  Insert nick Quick quote
+Quote Post
post Aug 11 2019, 19:05:27
Post #4

Правь статус, ####!111
**************
Group: Металариец
Posts: 3,976
Releases: 0
From: Одесса
On Forums: 11 years 5 months
Thanks: 2085 time(s)
Unknown


Very good release (IMG:style_emoticons/default/9.gif)


Thanks:
Go to the top of the page
  Insert nick Quick quote
+Quote Post
post Aug 11 2019, 19:06:38
Post #5

Правь статус, ####!111
**************
Group: Металариец
Posts: 42,462
Releases: 644
On Forums: 10 years 2 months
Thanks: 33322 time(s)
Russian Federation


ЦИТАТА(babanguida @ Aug 11 2019, 22:05:27) *
Very good release (IMG:style_emoticons/default/9.gif)


I post only excellent stuff (with rare exceptions) (IMG:style_emoticons/default/bye.gif)


Thanks:
Go to the top of the page
  Insert nick Quick quote
+Quote Post
post Aug 11 2019, 20:09:20
Post #6

За Русь в метро взорвусь
**************
Group: Металариец
Posts: 2,649
Releases: 2
From: Yaroslavl
On Forums: 2 years 11 months
Thanks: 1572 time(s)
Northern Mariana Islands


отличный альбом.


Thanks:
Go to the top of the page
  Insert nick Quick quote
+Quote Post
post Aug 11 2019, 20:11:39
Post #7

Правь статус, ####!111
**************
Group: Металариец
Posts: 42,462
Releases: 644
On Forums: 10 years 2 months
Thanks: 33322 time(s)
Russian Federation


ЦИТАТА(Faust_Vulkan_16 @ Aug 11 2019, 23:09:20) *
отличный альбом.


Димась, в твоем вкусе в плане музыки я и не сомневаюсь (IMG:style_emoticons/default/9.gif)


Thanks:
Go to the top of the page
  Insert nick Quick quote
+Quote Post
post Aug 12 2019, 08:00:18
Post #8

Враг Газпрома
**************
Group: Металариец
Posts: 5,976
Releases: 0
On Forums: 10 years 2 months
Thanks: 2148 time(s)
Russian Federation


Второй из четырех релизов раннего периода существования группы. Характерный панковатый звук, узнаваемые гитары (так почти никто больше не звучит), подпевки Ким Дил, наличие инди-хитов при нежелании Фрэнка Блэка залазить в рамки поп-музыки. Из всего ряда песен, наряду с Gigantic, Bone Machine, Vamos, нельзя не назвать психическинеуравновешенную Where Is My Mind?, прославленную фильмом "Бойцовский клуб".


Thanks:
(1) Ghostb,
Go to the top of the page
  Insert nick Quick quote
+Quote Post

Reply to this topicStart new topic
1 User(s) are reading this topic (1 Guests and 0 Anonymous Users)
0 Members:

 



- Lo-Fi Version Support form
Copyrights and abuse reports form
Time is now: 24th August 2019 - 04:07:43