Welcome Guest ( Log In | Register )

> Releases Upload / Добавление релизов

Добавить релиз тут / Click here to add release
Рекомендованные обменники / Recommended file shares

 
Reply to this topicStart new topic
> Gravatus - Et Omnis Insipientia Aperuit Os Suum (2019), Atmospheric Black Metal/Ambient
post Aug 8 2019, 17:40:49
Post #1

𝕻𝕬𝕹𝕬𝕮𝕰𝕬
******
Group: Металариец
Posts: 692
Releases: 388
On Forums: 7 years 3 months
Thanks: 5803 time(s)
Unknown


(IMG:http://metalarea.org/images/audiocovers/2019_Aug/acov_tid325492_thumb.jpg)

*Artist: Gravatus
*Album: Et Omnis Insipientia Aperuit Os Suum
*Year: 2019
*Genre: Atmospheric Black Metal/Ambient
*Country: Romania (IMG:http://metalarea.org/forum/style_images/flags/Romania.png)
*Format: mp3@CBR320kbps
*Size: 71MB

Tracklist:
1. Vitam Impendere Desperatio 08:20
2. Mors Omnibus Lucet 05:19
3. Nostrum Desiderium Mortis 06:57
4. Nulla Salus 07:14
5. Comedia Finita Est 03:08
******************************
Total playing time: 30:58



Technical info
(IMG:http://metalarea.org/images/spectrogram/2019_Aug/fe3422fbfc403491dc9a171734fbc27f.png)
Input File: 02 - Mors Omnibus Lucet.mp3
Channels : 2
Sample Rate : 44100
Precision : 16-bit
Duration : 00:05:19.42 = 14086422 samples = 23956.5 CDDA sectors
File Size : 12.9M
Bit Rate : 323k
Sample Encoding: MPEG audio (layer I, II or III)
Comments :
Title=Mors Omnibus Lucet
Artist=Gravatus
Album=Et Omnis Insipientia Aperuit Os Suum
Tracknumber=2
Year=2019
Genre=Atmospheric Black Metal/Ambient



Register


Go to the top of the page
  Insert nick Quick quote
+Quote Post

Reply to this topicStart new topic
2 User(s) are reading this topic (2 Guests and 0 Anonymous Users)
0 Members:

 



- Lo-Fi Version Support form
Copyrights and abuse reports form
Time is now: 16th September 2019 - 01:57:31