Welcome Guest ( Log In | Register )

> Pissing Razors - Psycho Punko Metal Groove (1996), Groove Metal
Anger
post Aug 10 2019, 18:40:13
Post #1

Guests team






(IMG:http://metalarea.org/images/audiocovers/2019_Aug/acov_tid325551_thumb.jpg)

*Artist: Pissing Razors
*Album: Psycho Punko Metal Groove
*Year: 1996
*Genre: Groove Metal
*Country: United States (IMG:http://metalarea.org/forum/style_images/flags/United%20States.png)
*Format: mp3@CBR320kbps
*Size: 125MB

Tracklist:
01. World Of Deceit 4:13
02. Haze Of Deception 2:21
03. Wasteland 2:33
04. Wall Street Man 3:25
05. Fuck You Up 4:00
06. Box Life 3:44
07. Head Strong 3:52
08. Friends 3:01
09. Season To Die 3:24
10. Why 2:13
11. I Hate You 3:23
12. Down With The Cause 1:56
13. (Hillbilly) Control Is 3:24
14. Division Lines 3:08
15. Nine Lives 2:47
16. Voice Of Reason 2:20
******************************
Total playing time: 49:44

Technical info
(IMG:http://metalarea.org/images/spectrogram/2019_Aug/8f66e99c1dac8147ad8f39bcae7857a4.png)
Input File: 03 - Wasteland.mp3
Channels : 2
Sample Rate : 44100
Precision : 16-bit
Duration : 00:02:33.87 = 6785623 samples = 11540.2 CDDA sectors
File Size : 6.92M
Bit Rate : 360k
Sample Encoding: MPEG audio (layer I, II or III)
Comments :
Title=Wasteland
Artist=Pissing Razors
Album=Psycho Punko Metal Groove
Tracknumber=03
Year=1996
Genre=Groove Metal



Register


Go to the top of the page
  Insert nick Quick quote
+Quote Post
 
Start new topic
Replies (1 - 5)
post Aug 11 2019, 01:37:33
Post #2

Социопат.Маргинал. Мизантроп.Нигилист. Перверзный нарциссист.
**************
Group: Металариец
Posts: 5,566
Releases: 667
From: Город-герой Ленинград
On Forums: 9 years 3 months
Thanks: 6400 time(s)
Russian Federation





Thanks:
Go to the top of the page
  Insert nick Quick quote
+Quote Post
post Aug 11 2019, 12:20:56
Post #3

Правь статус, ####!111
**************
Group: Металариец
Posts: 46,476
Releases: 717
On Forums: 11 years 1 day
Thanks: 39006 time(s)
Russian Federation


Неужели его не было здесь? (IMG:style_emoticons/default/headcrab.png)
Go to the top of the page
  Insert nick Quick quote
+Quote Post
post Aug 11 2019, 13:01:08
Post #4

Четыре Литра
****
Group: Металариец
Posts: 302
Releases: 0
On Forums: 11 years 4 days
Thanks: 90 time(s)
Russian Federation


ЦИТАТА(vosmidesijatye @ Aug 11 2019, 14:20:56) *
Неужели его не было здесь? (IMG:style_emoticons/default/headcrab.png)


все копии с этого альбома были (всегда) рипами с ютюба
Go to the top of the page
  Insert nick Quick quote
+Quote Post
post Aug 11 2019, 20:53:08
Post #5

Мегаманьяк
***********
Group: Металариец
Posts: 1,695
Releases: 9
From: Madhouse
On Forums: 13 years 3 months
Thanks: 765 time(s)
Vatican City


mirror pls (IMG:style_emoticons/default/smile3.gif)
Go to the top of the page
  Insert nick Quick quote
+Quote Post
post Aug 12 2019, 01:12:59
Post #6

Социопат.Маргинал. Мизантроп.Нигилист. Перверзный нарциссист.
**************
Group: Металариец
Posts: 5,566
Releases: 667
From: Город-герой Ленинград
On Forums: 9 years 3 months
Thanks: 6400 time(s)
Russian Federation


Register

Register


Go to the top of the page
  Insert nick Quick quote
+Quote Post

Reply to this topicStart new topic
2 User(s) are reading this topic (2 Guests and 0 Anonymous Users)
0 Members:

 



- Lo-Fi Version Support form
Copyrights and abuse reports form
Time is now: 3rd June 2020 - 10:01:14