Welcome Guest ( Log In | Register )

> Правила / Rules

Тут только для чтения лежат низкобитрейтные (<192kbps) релизы, для которых есть аналоги в высокобитрейтных форумах.

Here goes (and stand in read only mode) low bitrate releases (<192kbps) which were already replaced by high bitrate releases in corresponding forums.

Причина закрытия (Абигор 20-08-2019): Wolfskull - Call Of The Gjallarhorn (2019)
 
Closed TopicStart new topic
> Wolfskull - Call Of The Gjallarhorn (2019), Melodic Death Metal
post Aug 10 2019, 18:40:59
Post #1

Каждое ваше "Спасибо" помогает мне понять, что я делаю новости не напрасно.
**************
Group: Металариец
Posts: 2,099
Releases: 1848
From: Одесса
On Forums: 11 years 6 months
Thanks: 16129 time(s)
Ukraine


(IMG:http://metalarea.org/images/audiocovers/2019_Aug/acov_tid325552_thumb.jpg)

*Artist: Wolfskull
*Album: Call Of The Gjallarhorn
*Year: 2019
*Genre: Melodic Death Metal
*Country: Canada (IMG:http://metalarea.org/forum/style_images/flags/Canada.png)
*Format: mp3@CBR128kbps (IMG:http://metalarea.org/images/bit_low.gif)
*Size: 47MB

Tracklist:
1. Warriors of Asgard 04:26
2. Berserker 03:42
3. Oathbreaker 04:40
4. Mjolnir's Might 04:52
5. A Hero's Resolve 04:49
6. The Last Stand 03:37
7. Fimbulwinter 07:48
8. The Guardian 05:03
9. Warpath 04:08
10. Call of the Gjallarhorn 06:14
******************************
Total playing time: 49:19



Technical info
(IMG:http://metalarea.org/images/spectrogram/2019_Aug/090f84217b06f400f9f7e4d946373fe8.png)
Input File: 10 - Call of the Gjallarhorn.mp3
Channels : 2
Sample Rate : 44100
Precision : 16-bit
Duration : 00:06:14.87 = 16531943 samples = 28115.5 CDDA sectors
File Size : 6.08M
Bit Rate : 130k
Sample Encoding: MPEG audio (layer I, II or III)
Comments :
Title=Call of the Gjallarhorn
Artist=Wolfskull
Album=Call of the Gjallarhorn
Tracknumber=10
Year=2019
Genre=Melodic Death Metal



Register


Go to the top of the page
  Insert nick Quick quote
+Quote Post

Причина закрытия (Абигор 20-08-2019): Wolfskull - Call Of The Gjallarhorn (2019)
Closed TopicStart new topic
1 User(s) are reading this topic (1 Guests and 0 Anonymous Users)
0 Members:

 



- Lo-Fi Version Support form
Copyrights and abuse reports form
Time is now: 6th December 2019 - 01:21:58