Welcome Guest ( Log In | Register )

> Evil Joe - Nuclear Vacation (2019), Thrash Metal
post Aug 11 2019, 12:09:51
Post #1

Правь статус, ####!111
**************
Group: Металариец
Posts: 28,174
Releases: 20563
From: Г.Харьков
On Forums: 9 years 6 months
Thanks: 418746 time(s)
Unknown


(IMG:http://metalarea.org/images/audiocovers/2019_Aug/acov_tid325572_thumb.jpg)

*Artist: Evil Joe
*Album: Nuclear Vacation
*Year: 2019
*Genre: Thrash Metal
*Country: Croatia (IMG:http://metalarea.org/forum/style_images/flags/Croatia.png)
*Format: mp3@CBR320kbps
*Size: 76MB

Tracklist:
1. Mad Trucker 03:10
2. Evil Joe 03:17
3. Ashley J 03:16
4. Fucker from Hell 04:09
5. Nuclear Bukkake Apocalypse Massacre 02:51
6. Zombie Pope 03:29
7. Turbo Duck Lover 03:02
8. S.M.R.T. (Smart Machine Robotic Technocracy) 03:38
9. Bullet (Misfits cover) 01:36
10. Nuklearni Holokaust 05:38
******************************
Total playing time: 34:06




Extended info
Vaginator Žnjole Guitars, Bass, Vocals, Drums programming (2019-present)
See also: ex-Melkor


Technical info
(IMG:http://metalarea.org/images/spectrogram/2019_Aug/a5c0f4a3db3500ddb75a68171c7e123c.png)
Input File: Evil Joe - Nuclear vacation - 02 Evil Joe.mp3
Channels : 2
Sample Rate : 44100
Precision : 16-bit
Duration : 00:03:17.68 = 8717644 samples = 14825.9 CDDA sectors
File Size : 8.04M
Bit Rate : 325k
Sample Encoding: MPEG audio (layer I, II or III)
Comments :
Title=Evil Joe
Artist=Evil Joe
Album=Nuclear vacation
Tracknumber=2
Year=2019



Register


Go to the top of the page
  Insert nick Quick quote
+Quote Post
 
Start new topic
Replies (1 - 3)
post Aug 13 2019, 13:51:02
Post #2

Маньяк
**********
Group: Металариец
Posts: 1,413
Releases: 5
From: Нью-Васюки
On Forums: 15 years 6 months
Thanks: 422 time(s)
Russian Federation


звук параша какая то, впрочем как и музыка, откровенный шлак.Если раньше релизы Самаритянина были для меня показателем хороших групп, то в последнее время он какой левак сует.


Thanks:
Go to the top of the page
  Insert nick Quick quote
+Quote Post
post Aug 13 2019, 13:58:00
Post #3

Правь статус, ####!111
**************
Group: Металариец
Posts: 28,174
Releases: 20563
From: Г.Харьков
On Forums: 9 years 6 months
Thanks: 418746 time(s)
Unknown


ЦИТАТА(Darkness @ 13th August 2019 - 13:51:02) *
Если раньше релизы Самаритянина были для меня показателем хороших групп, то в последнее время он какой левак сует.

Это ж не моя прихоть и не моя группа))))
Что попалось,то и запилил.
P.S. группа не группа,а один человек и играет он бесспорно безкомпромиссное говно! (IMG:style_emoticons/default/bye.gif)
Go to the top of the page
  Insert nick Quick quote
+Quote Post
post Aug 13 2019, 13:59:41
Post #4

Правь статус, ####!111
**************
Group: Металариец
Posts: 49,591
Releases: 894
On Forums: 12 years 6 months
Thanks: 45616 time(s)
Russian Federation


ЦИТАТА(Darkness @ Aug 13 2019, 15:51:02) *
Если раньше релизы Самаритянина были для меня показателем хороших групп, то в последнее время он какой левак сует.


Так не он же записывает музло, а уж левак - не левак - тут каждый сам опрелеляет.

Что одному левак - другому первосорт.
Go to the top of the page
  Insert nick Quick quote
+Quote Post

Reply to this topicStart new topic
2 User(s) are reading this topic (2 Guests and 0 Anonymous Users)
0 Members:

 



- Lo-Fi Version Support form
Copyrights and abuse reports form
Time is now: 4th December 2021 - 11:28:34