Welcome Guest ( Log In | Register )

> И неформату есть предел.

Рэп/хип-хоп/шансон/поп удаляются. Для них есть свои порталы.

> The Ivory Elеphant - Stoneface (2019), Psychedelic/Blues Rock
post Aug 11 2019, 14:12:13
Post #1

Правь статус, ####!111
**************
Group: Металариец
Posts: 44,589
Releases: 688
On Forums: 10 years 6 months
Thanks: 35864 time(s)
Russian Federation


(IMG:http://metalarea.org/images/audiocovers/2019_Aug/acov_tid325576_thumb.jpg)

*Artist: The Ivory Elеphant
*Album: Stoneface
*Year: 2019
*Genre: Psychedelic/Blues Rock
*Country: Australia (IMG:http://metalarea.org/forum/style_images/flags/Australia.png)
*Format: mp3@CBR320kbps
*Size: 107MB

Tracklist:
1. Storm 05:41
2. Maybe I'm Evil 04:04
3. Wars 06:51
4. Roll On 03:09
5. Jazzhead pt I 02:11
6. Low Expectation 03:38
7. Stoneface Jamboree 03:51
8. Stoneface 07:46
9. Hard Case 03:16
10. Jazzhead pt II 06:50
******************************
Total playing time: 47:17



Technical info
(IMG:http://metalarea.org/images/spectrogram/2019_Aug/ca2e44c6c4f66b47ebd63a0d49238d35.png)
Input File: 01. Storm.mp3
Channels : 2
Sample Rate : 44100
Precision : 16-bit
Duration : 00:05:37.54 = 14885382 samples = 25315.3 CDDA sectors
File Size : 13.6M
Bit Rate : 322k
Sample Encoding: MPEG audio (layer I, II or III)
Comments :
Title=Storm
Artist=The Ivory Elephant
Album=Stoneface
Tracknumber=1
Year=2019
Genre=Psychedelic Rock



Register


Go to the top of the page
  Insert nick Quick quote
+Quote Post
 
Start new topic
Replies (1 - 1)
post Aug 12 2019, 08:56:51
Post #2

Правь статус, ####!111
**************
Group: Металариец
Posts: 44,589
Releases: 688
On Forums: 10 years 6 months
Thanks: 35864 time(s)
Russian Federation


Очень порадовал сей сытный релиз.
Go to the top of the page
  Insert nick Quick quote
+Quote Post

Reply to this topicStart new topic
1 User(s) are reading this topic (1 Guests and 0 Anonymous Users)
0 Members:

 



- Lo-Fi Version Support form
Copyrights and abuse reports form
Time is now: 12th December 2019 - 17:25:41