Welcome Guest ( Log In | Register )

> И неформату есть предел.

Рэп/хип-хоп/шансон/поп удаляются. Для них есть свои порталы.

 
Reply to this topicStart new topic
> Phil Campbell & The Bastard Sons - The Age Of Absurdity (2018), Hard Rock
post Aug 11 2019, 14:50:58
Post #1

Правь статус, ####!111
**************
Group: Металариец
Posts: 42,462
Releases: 644
On Forums: 10 years 2 months
Thanks: 33322 time(s)
Russian Federation


(IMG:http://metalarea.org/images/audiocovers/2019_Aug/acov_tid325579_thumb.jpg)

*Artist: Phil Campbell & The Bastard Sons
*Album: The Age Of Absurdity
*Year: 2018
*Genre: Hard Rock
*Country: United States (IMG:http://metalarea.org/forum/style_images/flags/United%20States.png)
*Format: mp3@CBR320kbps
*Size: 114MB

Tracklist:
1.Ringleader
2.Freak Show
3.Skin and Bones
4.Gypsy Kiss
5.Welcome to Hell
6.Dark Days
7.Dropping The Needle
8.Step Into The Fire
9.Get On Your Knees
10.High Rule
11.Into The Dark
12.Shit Happens
13.Silver Machine
******************************
Total playing time: 49:10

(IMG:http://metalarea.org/images/youtube.png)

Technical info
(IMG:http://metalarea.org/images/spectrogram/2019_Aug/5f68a5d9e82f57d69c73e9953c3dccbe.png)
Input File: 01 Ringleader.mp3
Channels : 2
Sample Rate : 44100
Precision : 16-bit
Duration : 00:04:04.86 = 10798414 samples = 18364.6 CDDA sectors
File Size : 10.1M
Bit Rate : 328k
Sample Encoding: MPEG audio (layer I, II or III)
Comments :
Title=Ringleader
Artist=Phil Campbell And The Bastard Sons
Album=The Age Of Absurdity
Tracknumber=1/13
Year=2018
Genre=Hard Rock



Register


Go to the top of the page
  Insert nick Quick quote
+Quote Post

Reply to this topicStart new topic
1 User(s) are reading this topic (1 Guests and 0 Anonymous Users)
0 Members:

 



- Lo-Fi Version Support form
Copyrights and abuse reports form
Time is now: 24th August 2019 - 03:19:47