Welcome Guest ( Log In | Register )

> Releases Upload / Добавление релизов

Добавить релиз тут / Click here to add release
Рекомендованные обменники / Recommended file shares

> Hulder - De Oproeping Van Middeleeuwse Duisternis [compilation] (2019), Black Metal
post Aug 11 2019, 14:53:29
Post #1

Мегаманьяк
***********
Group: Металариец
Posts: 1,766
Releases: 1399
From: Prešov
On Forums: 5 years 5 months
Thanks: 33931 time(s)
Slovakia


(IMG:http://metalarea.org/images/audiocovers/2019_Aug/acov_tid325580_thumb.jpg)

*Artist: Hulder
*Album: De Oproeping Van Middeleeuwse Duisternis [compilation]
*Year: 2019
*Genre: Black Metal
*Country: United States (IMG:http://metalarea.org/forum/style_images/flags/United%20States.png)
*Format: mp3@CBR320kbps
*Size: 84MB

Tracklist:
1. De oproeping van middeleeuwse duisternis 00:46
2. Heksensabbat 02:36
3. Bestial Form of Humanity 04:06
4. Implements of Hell 05:36
5. Into the Crypts of Rays 03:48
6. Heksensabbat 05:27
7. Bestial Form of Humanity 04:50
8. Implements of Hell 07:45
******************************
Total playing time: 34:54



Technical info
(IMG:http://metalarea.org/images/spectrogram/2019_Aug/9f9d53058a2a2144f50123a20a7cc0aa.png)
Input File: 02. Heksensabbat.mp3
Channels : 2
Sample Rate : 44100
Precision : 16-bit
Duration : 00:02:36.07 = 6882555 samples = 11705 CDDA sectors
File Size : 6.31M
Bit Rate : 324k
Sample Encoding: MPEG audio (layer I, II or III)
Comments :
Title=Heksensabbat
Artist=Hulder
Album=De Oproeping Van Middeleeuwse Duisternis
Tracknumber=02/08
Year=2019
Genre=Black Metal



Register


Go to the top of the page
  Insert nick Quick quote
+Quote Post
 
Start new topic
Replies (1 - 1)
post Aug 13 2019, 09:25:34
Post #2

Пять Литров
*****
Group: Металариец
Posts: 416
Releases: 16
From: Подольск
On Forums: 10 years 3 months
Thanks: 504 time(s)
Russian Federation


наип*здатейший сырой злобный блек (IMG:style_emoticons/default/metaler.gif) (IMG:style_emoticons/default/true_black.gif) (IMG:style_emoticons/default/banana.gif) , сыгранный бельгийской девчонкой (IMG:style_emoticons/default/10.gif)
ваще молодца (IMG:style_emoticons/default/9.gif)
Go to the top of the page
  Insert nick Quick quote
+Quote Post

Reply to this topicStart new topic
1 User(s) are reading this topic (1 Guests and 0 Anonymous Users)
0 Members:

 



- Lo-Fi Version Support form
Copyrights and abuse reports form
Time is now: 15th September 2019 - 21:10:48